Loading...
Error

(Jazz, Rock) Sadakazu Tabata & Groovy 6 - Smash In The Rock (2007) [FLAC (Tracks+.Cue), Lossless]

Статистика раздачи
Размер:  277 MB   |    Зарегистрирован:  4 месяца 4 дня   |    Скачан:  4 раза

Полного источника не было: 2 дня 4 часа

Сидов:  0  |  0 KB/s  ]   Личеров:  0  |  0 KB/s  ]

* - сиды/пиры с внешних источников

   
 
Автор Сообщение

Бишеп Пол:Муж

11-Апр-2018 13:09

Sadakazu Tabata & Groovy 6 - Smash In The Rock

Жанр: Jazz, Rock
Год выпуска: 2007
Источник: CD
Производитель диска: Polydor - PROA-87
Аудиокодек: FLAC
Тип рипа: Tracks+.CUE
Битрейт аудио: lossless
Продолжительность: 00:47:39


Треклист:
01. Trouble
02. G.I. Blues
03. And Rice
04. Smash
05. Love Me Tender
06. Moby Dick
07. Hideway
08. Monsieur. K
09. His Salad Day's

Код:

X Lossless Decoder version 20170729 (150.3)

XLD extraction logfile from 2018-02-16 15:02:03 -0800

Sadakazu Tabata & Groovy 6 / Smash In The Rock

Used drive : TSSTcorp CDDVDW SE-218CB (revision MF00)
Media type : Pressed CD

Ripper mode             : XLD Secure Ripper
Disable audio cache     : OK for the drive with a cache less than 1375KiB
Make use of C2 pointers : NO
Read offset correction  : 6
Max retry count         : 100
Gap status              : Analyzed, Appended (except HTOA)

TOC of the extracted CD
     Track |   Start  |  Length  | Start sector | End sector
    ---------------------------------------------------------
        1  | 00:00:00 | 04:01:61 |         0    |    18135   
        2  | 04:01:61 | 06:43:06 |     18136    |    48366   
        3  | 10:44:67 | 05:30:06 |     48367    |    73122   
        4  | 16:14:73 | 06:54:13 |     73123    |   104185   
        5  | 23:09:11 | 03:57:49 |    104186    |   122009   
        6  | 27:06:60 | 04:47:68 |    122010    |   143602   
        7  | 31:54:53 | 04:06:32 |    143603    |   162084   
        8  | 36:01:10 | 04:22:66 |    162085    |   181800   
        9  | 40:24:01 | 07:15:21 |    181801    |   214446   

AccurateRip Summary (DiscID: 00104aee-0077299c-7b0b2b09)
    Track 01 : OK (v2, confidence 1/1)
    Track 02 : OK (v2, confidence 1/1)
    Track 03 : OK (v2, confidence 1/1)
    Track 04 : OK (v2, confidence 1/1)
    Track 05 : OK (v2, confidence 1/1)
    Track 06 : OK (v2, confidence 1/1)
    Track 07 : OK (v2, confidence 1/1)
    Track 08 : OK (v2, confidence 1/1)
    Track 09 : OK (v2, confidence 1/1)
        ->All tracks accurately ripped.

All Tracks
    Album gain               : -4.51 dB
    Peak                     : 0.998749
    Statistics
        Read error                           : 0
        Jitter error (maybe fixed)           : 0
        Retry sector count                   : 0
        Damaged sector count                 : 0

Track 01
    Filename : /Volumes/Multimedia/XLD/Sadakazu Tabata & Groovy 6 - (1971) Smash In The Rock [FLAC]/01 - Sadakazu Tabata & Groovy 6 - Trouble.flac
    Pre-gap length : 00:02:00

    Track gain               : -4.60 dB
    Peak                     : 0.968231
    CRC32 hash (test run)    : 78C66F88
    CRC32 hash               : 78C66F88
    CRC32 hash (skip zero)   : 815FC9AE
    AccurateRip v1 signature : B9E8CAA9
    AccurateRip v2 signature : 5B79B9A5
        ->Accurately ripped (v2, confidence 1/1)
    Statistics
        Read error                           : 0
        Jitter error (maybe fixed)           : 0
        Retry sector count                   : 0
        Damaged sector count                 : 0

Track 02
    Filename : /Volumes/Multimedia/XLD/Sadakazu Tabata & Groovy 6 - (1971) Smash In The Rock [FLAC]/02 - Sadakazu Tabata & Groovy 6 - G.I. Blues.flac
    Pre-gap length : 00:03:66

    Track gain               : -4.59 dB
    Peak                     : 0.998749
    CRC32 hash (test run)    : F6476BC2
    CRC32 hash               : F6476BC2
    CRC32 hash (skip zero)   : C5602207
    AccurateRip v1 signature : 087F445A
    AccurateRip v2 signature : C5A51A3C
        ->Accurately ripped (v2, confidence 1/1)
    Statistics
        Read error                           : 0
        Jitter error (maybe fixed)           : 0
        Retry sector count                   : 0
        Damaged sector count                 : 0

Track 03
    Filename : /Volumes/Multimedia/XLD/Sadakazu Tabata & Groovy 6 - (1971) Smash In The Rock [FLAC]/03 - Sadakazu Tabata & Groovy 6 - And Rice.flac
    Pre-gap length : 00:03:37

    Track gain               : -5.03 dB
    Peak                     : 0.997406
    CRC32 hash (test run)    : 2E99C89E
    CRC32 hash               : 2E99C89E
    CRC32 hash (skip zero)   : 19227B04
    AccurateRip v1 signature : 7E36FCF0
    AccurateRip v2 signature : 5CF0F7CC
        ->Accurately ripped (v2, confidence 1/1)
    Statistics
        Read error                           : 0
        Jitter error (maybe fixed)           : 0
        Retry sector count                   : 0
        Damaged sector count                 : 0

Track 04
    Filename : /Volumes/Multimedia/XLD/Sadakazu Tabata & Groovy 6 - (1971) Smash In The Rock [FLAC]/04 - Sadakazu Tabata & Groovy 6 - Smash.flac
    Pre-gap length : 00:02:71

    Track gain               : -5.04 dB
    Peak                     : 0.998047
    CRC32 hash (test run)    : 9C3077F4
    CRC32 hash               : 9C3077F4
    CRC32 hash (skip zero)   : 3FAF9174
    AccurateRip v1 signature : 017E2454
    AccurateRip v2 signature : D25069C9
        ->Accurately ripped (v2, confidence 1/1)
    Statistics
        Read error                           : 0
        Jitter error (maybe fixed)           : 0
        Retry sector count                   : 0
        Damaged sector count                 : 0

Track 05
    Filename : /Volumes/Multimedia/XLD/Sadakazu Tabata & Groovy 6 - (1971) Smash In The Rock [FLAC]/05 - Sadakazu Tabata & Groovy 6 - Love Me Tender.flac
    Pre-gap length : 00:02:61

    Track gain               : -4.35 dB
    Peak                     : 0.998627
    CRC32 hash (test run)    : 914D7E2B
    CRC32 hash               : 914D7E2B
    CRC32 hash (skip zero)   : 289D3DFF
    AccurateRip v1 signature : B8623EBE
    AccurateRip v2 signature : C111DCC3
        ->Accurately ripped (v2, confidence 1/1)
    Statistics
        Read error                           : 0
        Jitter error (maybe fixed)           : 0
        Retry sector count                   : 0
        Damaged sector count                 : 0

Track 06
    Filename : /Volumes/Multimedia/XLD/Sadakazu Tabata & Groovy 6 - (1971) Smash In The Rock [FLAC]/06 - Sadakazu Tabata & Groovy 6 - Moby Dick.flac
    Pre-gap length : 00:03:72

    Track gain               : -1.27 dB
    Peak                     : 0.998718
    CRC32 hash (test run)    : FC2B4463
    CRC32 hash               : FC2B4463
    CRC32 hash (skip zero)   : CE492CC0
    AccurateRip v1 signature : BF318F87
    AccurateRip v2 signature : 287FE179
        ->Accurately ripped (v2, confidence 1/1)
    Statistics
        Read error                           : 0
        Jitter error (maybe fixed)           : 0
        Retry sector count                   : 0
        Damaged sector count                 : 0

Track 07
    Filename : /Volumes/Multimedia/XLD/Sadakazu Tabata & Groovy 6 - (1971) Smash In The Rock [FLAC]/07 - Sadakazu Tabata & Groovy 6 - Hideway.flac
    Pre-gap length : 00:04:28

    Track gain               : -4.05 dB
    Peak                     : 0.975250
    CRC32 hash (test run)    : 9910F3B5
    CRC32 hash               : 9910F3B5
    CRC32 hash (skip zero)   : 066DDBC8
    AccurateRip v1 signature : 6332BFBB
    AccurateRip v2 signature : D7DF3939
        ->Accurately ripped (v2, confidence 1/1)
    Statistics
        Read error                           : 0
        Jitter error (maybe fixed)           : 0
        Retry sector count                   : 0
        Damaged sector count                 : 0

Track 08
    Filename : /Volumes/Multimedia/XLD/Sadakazu Tabata & Groovy 6 - (1971) Smash In The Rock [FLAC]/08 - Sadakazu Tabata & Groovy 6 - Monsieur. K.flac
    Pre-gap length : 00:03:65

    Track gain               : -5.68 dB
    Peak                     : 0.998657
    CRC32 hash (test run)    : A138DF41
    CRC32 hash               : A138DF41
    CRC32 hash (skip zero)   : 3C7E4609
    AccurateRip v1 signature : F1976905
    AccurateRip v2 signature : A0853B81
        ->Accurately ripped (v2, confidence 1/1)
    Statistics
        Read error                           : 0
        Jitter error (maybe fixed)           : 0
        Retry sector count                   : 0
        Damaged sector count                 : 0

Track 09
    Filename : /Volumes/Multimedia/XLD/Sadakazu Tabata & Groovy 6 - (1971) Smash In The Rock [FLAC]/09 - Sadakazu Tabata & Groovy 6 - His Salad Day's.flac
    Pre-gap length : 00:03:69

    Track gain               : -3.40 dB
    Peak                     : 0.997620
    CRC32 hash (test run)    : 49FB22BB
    CRC32 hash               : 49FB22BB
    CRC32 hash (skip zero)   : 53D849CF
    AccurateRip v1 signature : CFFC2DF0
    AccurateRip v2 signature : 398B5E47
        ->Accurately ripped (v2, confidence 1/1)
    Statistics
        Read error                           : 0
        Jitter error (maybe fixed)           : 0
        Retry sector count                   : 0
        Damaged sector count                 : 0

No errors occurred

End of status report

-----BEGIN XLD SIGNATURE-----
WORwl_smQws31ArjagxjhqFwkxPYtrRgWnKQsi9cljZTu2auhgTowrKdlievjJ8GPr33NcgMKkm8_2NnE2WfD_dgHu413Ty9icKVuCW
-----END XLD SIGNATURE-----

Код:

TITLE "Smash in the Rock"
PERFORMER "Sadakazu Tabata & Groovy 6"
CATALOG 0028945063133
REM GENRE "Rock"
REM DATE "1971"
REM DISCID 7B0B2B09
REM REPLAYGAIN_ALBUM_GAIN -4.51 dB
REM REPLAYGAIN_ALBUM_PEAK 0.998749
FILE "01 - Trouble.flac" WAVE
  TRACK 01 AUDIO
    TITLE "Trouble"
    ISRC JPPO00701310
    REM REPLAYGAIN_TRACK_GAIN -4.60 dB
    REM REPLAYGAIN_TRACK_PEAK 0.968231
    INDEX 01 00:00:00
  TRACK 02 AUDIO
    TITLE "G.I. Blues"
    ISRC JPPO00701320
    REM REPLAYGAIN_TRACK_GAIN -4.59 dB
    REM REPLAYGAIN_TRACK_PEAK 0.998749
    INDEX 00 03:57:70
FILE "02 - G.I. Blues.flac" WAVE
    INDEX 01 00:00:00
  TRACK 03 AUDIO
    TITLE "And Rice"
    ISRC JPPO00701330
    REM REPLAYGAIN_TRACK_GAIN -5.03 dB
    REM REPLAYGAIN_TRACK_PEAK 0.997406
    INDEX 00 06:39:44
FILE "03 - And Rice.flac" WAVE
    INDEX 01 00:00:00
  TRACK 04 AUDIO
    TITLE "Smash"
    ISRC JPPO00701340
    REM REPLAYGAIN_TRACK_GAIN -5.04 dB
    REM REPLAYGAIN_TRACK_PEAK 0.998047
    INDEX 00 05:27:10
FILE "04 - Smash.flac" WAVE
    INDEX 01 00:00:00
  TRACK 05 AUDIO
    TITLE "Love Me Tender"
    ISRC JPPO00701350
    REM REPLAYGAIN_TRACK_GAIN -4.35 dB
    REM REPLAYGAIN_TRACK_PEAK 0.998627
    INDEX 00 06:51:27
FILE "05 - Love Me Tender.flac" WAVE
    INDEX 01 00:00:00
  TRACK 06 AUDIO
    TITLE "Moby Dick"
    ISRC JPPO00701360
    REM REPLAYGAIN_TRACK_GAIN -1.27 dB
    REM REPLAYGAIN_TRACK_PEAK 0.998718
    INDEX 00 03:53:52
FILE "06 - Moby Dick.flac" WAVE
    INDEX 01 00:00:00
  TRACK 07 AUDIO
    TITLE "Hideway"
    ISRC JPPO00701370
    REM REPLAYGAIN_TRACK_GAIN -4.05 dB
    REM REPLAYGAIN_TRACK_PEAK 0.975250
    INDEX 00 04:43:40
FILE "07 - Hideway.flac" WAVE
    INDEX 01 00:00:00
  TRACK 08 AUDIO
    TITLE "Monsieur. K"
    ISRC JPPO00701380
    REM REPLAYGAIN_TRACK_GAIN -5.68 dB
    REM REPLAYGAIN_TRACK_PEAK 0.998657
    INDEX 00 04:02:42
FILE "08 - Monsieur. K.flac" WAVE
    INDEX 01 00:00:00
  TRACK 09 AUDIO
    TITLE "His Salad Day's"
    ISRC JPPO00701390
    REM REPLAYGAIN_TRACK_GAIN -3.40 dB
    REM REPLAYGAIN_TRACK_PEAK 0.997620
    INDEX 00 04:18:72
FILE "09 - His Salad Day's.flac" WAVE
    INDEX 01 00:00:00
Discogs

Этот торрент недоступен для скачивания без регистрации, однако доступен по публичной magnet-ссылке (источники с публичных трекеров). Перед использованием ссылки прочтите, пожалуйста Пользовательское соглашение, а также как можно дольше оставайтесь на раздаче! Для того, чтобы скачать сам торрент-файл (который видит больше источников), а также для того, чтобы поблагодарить релизера, вам необходимо зарегистрироваться. Если регистрироваться лень - вы можете также попробовать скачать релиз по нашим партнерским ссылкам ниже. Кроме того, зарегистрированным пользователям не показывается всплывающая реклама при скачивании.

[underverse.me].t101972.torrent
Трекер: Зарегистрирован   [ 11.04.2018 13:09 ]  

Статус: проверено (by Бишеп at 11.04.2018 13:09)
Поблагодарили: 1 человек
Тип торрента: публичный - доступные источники с открытых трекеров: 
Размер: 277 MB (занимает 0,06 DVDR, для записи нужно 1 болванка DVDR/RW)
 
 
Похожие темы
Форум Тема Автор Торрент Отв. Посл. сооб.
Jazz (Lossless) (Jazz, Rock, Pop Rock) Steely Dan - Aja (1984) [FLAC (Tracks+.CUE), Lossless] Бишеп
6 | 7

1 | 1576

9

22.05.2017 17:35

Jazz (Lossless) (Jazz, Rock, Funk, Soul, Blues) Julie Driscoll & Brian Auger - Best Of Julie Driscoll & Brian Auger (1992) [FLAC (Image+.Cue), Lossless] Бишеп
2 | 0

0 | 1214

4

13.01.2017 21:24


Яндекс.Метрика powered by Sphinx


В Н И М А Н И Е
Сайт не распространяет и не хранит электронные версии произведений, а лишь бесплатно и без коммерческой выгоды (не требуя взамен платы,
SMS и т.д.) предоставляет доступ к создаваемому пользователями каталогу ссылок на торрент-файлы, которые содержат только списки хеш-сумм.
Убедительная просьба с жалобами обращаться напрямую к пользователю, разместившему торрент файл.

Вверх