Loading...
Error

(Pop) P!nk - Beautiful Trauma (Japan) (2017) [FLAC (Tracks+.Cue), Lossless]

Статистика раздачи
Размер:  721 MB   |    Зарегистрирован:  7 месяцев   |    Скачан:  3 раза

Полного источника не было: 21 день

Сидов:  0  |  0 KB/s  ]   Личеров:  0  |  0 KB/s  ]

* - сиды/пиры с внешних источников

   
 
Автор Сообщение

Бишеп Пол:Муж

12-Апр-2018 06:48

P!nk - Beautiful Trauma

Жанр: Pop
Год выпуска: 2017
Источник: CD
Производитель диска: RCA - SICP 5625
Аудиокодек: FLAC
Тип рипа: Tracks+.CUE
Битрейт аудио: lossless
Продолжительность: 00:53:56


Треклист:
01. Beautiful Trauma (4:10)
02. Revenge (3:46)
03. Whatever You Want (4:03)
04. What About Us (4:30)
05. But We Lost It (3:28)
06. Barbies (3:44)
07. Where We Go (4:28)
08. For Now (3:36)
09. Secrets (3:30)
10. Better Life (3:20)
11. I Am Here (4:06)
12. Wild Hearts Can't Be Broken (3:21)
13. You Get My Love (5:11)
14. White Rabbit (2:44)

Код:

Exact Audio Copy V1.3 from 2. September 2016

EAC extraction logfile from 26. October 2017, 19:43

P!nk / Beautiful Trauma

Used drive  : ASUS    BW-16D1HT   Adapter: 1  ID: 0

Read mode               : Secure
Utilize accurate stream : Yes
Defeat audio cache      : Yes
Make use of C2 pointers : No

Read offset correction                      : 6
Overread into Lead-In and Lead-Out          : No
Fill up missing offset samples with silence : Yes
Delete leading and trailing silent blocks   : No
Null samples used in CRC calculations       : Yes
Used interface                              : Native Win32 interface for Win NT & 2000
Gap handling                                : Appended to previous track

Used output format              : User Defined Encoder
Selected bitrate                : 896 kBit/s
Quality                         : High
Add ID3 tag                     : No
Command line compressor         : C:\Program Files (x86)\Exact Audio Copy\Flac\flac.exe
Additional command line options : -V -8 -T "Genre=%genre%" -T "Artist=%artist%" -T "Title=%title%" -T "Album=%albumtitle%" -T "Totaldiscs=%totalcds%" -T "Discnumber=%cdnumber%" -T "Date=%year%" -T "Tracknumber=%tracknr%" -T "Comment=%comment%" -T "Composer=%composer%" %source%

TOC of the extracted CD

     Track |   Start  |  Length  | Start sector | End sector
    ---------------------------------------------------------
        1  |  0:00.00 |  4:10.04 |         0    |    18753   
        2  |  4:10.04 |  3:46.12 |     18754    |    35715   
        3  |  7:56.16 |  4:02.58 |     35716    |    53923   
        4  | 11:58.74 |  4:29.41 |     53924    |    74139   
        5  | 16:28.40 |  3:27.41 |     74140    |    89705   
        6  | 19:56.06 |  3:43.58 |     89706    |   106488   
        7  | 23:39.64 |  4:27.44 |    106489    |   126557   
        8  | 28:07.33 |  3:36.15 |    126558    |   142772   
        9  | 31:43.48 |  3:30.04 |    142773    |   158526   
       10  | 35:13.52 |  3:20.30 |    158527    |   173556   
       11  | 38:34.07 |  4:06.04 |    173557    |   192010   
       12  | 42:40.11 |  3:21.06 |    192011    |   207091   
       13  | 46:01.17 |  5:11.17 |    207092    |   230433   
       14  | 51:12.34 |  2:43.71 |    230434    |   242729   

Track  1

     Filename D:\CDrip\01. Beautiful Trauma.wav

     Pre-gap length  0:00:02.00

     Peak level 100.0 %
     Extraction speed 4.3 X
     Track quality 100.0 %
     Test CRC 53A5A448
     Copy CRC 53A5A448
     Track not present in AccurateRip database
     Copy OK

Track  2

     Filename D:\CDrip\02. Revenge.wav

     Peak level 100.0 %
     Extraction speed 4.8 X
     Track quality 100.0 %
     Test CRC 2983FA60
     Copy CRC 2983FA60
     Track not present in AccurateRip database
     Copy OK

Track  3

     Filename D:\CDrip\03. Whatever You Want.wav

     Peak level 100.0 %
     Extraction speed 5.2 X
     Track quality 100.0 %
     Test CRC CA815966
     Copy CRC CA815966
     Track not present in AccurateRip database
     Copy OK

Track  4

     Filename D:\CDrip\04. What About Us.wav

     Peak level 100.0 %
     Extraction speed 5.1 X
     Track quality 99.9 %
     Test CRC 26F834BA
     Copy CRC 26F834BA
     Track not present in AccurateRip database
     Copy OK

Track  5

     Filename D:\CDrip\05. But We Lost It.wav

     Peak level 94.1 %
     Extraction speed 5.8 X
     Track quality 100.0 %
     Test CRC 2ECC9F1D
     Copy CRC 2ECC9F1D
     Track not present in AccurateRip database
     Copy OK

Track  6

     Filename D:\CDrip\06. Barbies.wav

     Peak level 100.0 %
     Extraction speed 5.5 X
     Track quality 99.9 %
     Test CRC 5CDCC991
     Copy CRC 5CDCC991
     Track not present in AccurateRip database
     Copy OK

Track  7

     Filename D:\CDrip\07. Where We Go.wav

     Peak level 94.7 %
     Extraction speed 6.0 X
     Track quality 99.9 %
     Test CRC FAFF8019
     Copy CRC FAFF8019
     Track not present in AccurateRip database
     Copy OK

Track  8

     Filename D:\CDrip\08. For Now.wav

     Peak level 100.0 %
     Extraction speed 6.7 X
     Track quality 100.0 %
     Test CRC B0551035
     Copy CRC B0551035
     Track not present in AccurateRip database
     Copy OK

Track  9

     Filename D:\CDrip\09. Secrets.wav

     Peak level 100.0 %
     Extraction speed 6.9 X
     Track quality 100.0 %
     Test CRC A2905095
     Copy CRC A2905095
     Track not present in AccurateRip database
     Copy OK

Track 10

     Filename D:\CDrip\10. Better Life.wav

     Peak level 94.7 %
     Extraction speed 7.1 X
     Track quality 100.0 %
     Test CRC A00463D7
     Copy CRC A00463D7
     Track not present in AccurateRip database
     Copy OK

Track 11

     Filename D:\CDrip\11. I Am Here.wav

     Peak level 94.3 %
     Extraction speed 7.5 X
     Track quality 100.0 %
     Test CRC CFDD9E75
     Copy CRC CFDD9E75
     Track not present in AccurateRip database
     Copy OK

Track 12

     Filename D:\CDrip\12. Wild Hearts Can't Be Broken.wav

     Peak level 100.0 %
     Extraction speed 7.5 X
     Track quality 100.0 %
     Test CRC C00FEE8F
     Copy CRC C00FEE8F
     Track not present in AccurateRip database
     Copy OK

Track 13

     Filename D:\CDrip\13. You Get My Love.wav

     Peak level 96.5 %
     Extraction speed 8.3 X
     Track quality 100.0 %
     Test CRC 3F86C4D2
     Copy CRC 3F86C4D2
     Track not present in AccurateRip database
     Copy OK

Track 14

     Filename D:\CDrip\14. White Rabbit.wav

     Peak level 98.8 %
     Extraction speed 7.6 X
     Track quality 100.0 %
     Test CRC 30A03358
     Copy CRC 30A03358
     Track not present in AccurateRip database
     Copy OK

None of the tracks are present in the AccurateRip database

No errors occurred

End of status report

---- CUETools DB Plugin V2.1.6

[CTDB TOCID: I3EG1zuh9gNE0q1EP.utQfopJjU-] found
Submit result: I3EG1zuh9gNE0q1EP.utQfopJjU- has been confirmed
Track | CTDB Status
  1   | (4/4) Accurately ripped
  2   | (4/4) Accurately ripped
  3   | (4/4) Accurately ripped
  4   | (4/4) Accurately ripped
  5   | (4/4) Accurately ripped
  6   | (4/4) Accurately ripped
  7   | (4/4) Accurately ripped
  8   | (4/4) Accurately ripped
  9   | (4/4) Accurately ripped
 10   | (4/4) Accurately ripped
 11   | (4/4) Accurately ripped
 12   | (4/4) Accurately ripped
 13   | (4/4) Accurately ripped
 14   | (4/4) Accurately ripped

==== Log checksum B4FADC15237E8F4DA71D004B190B83873DABC625AD99CF8FAFA884F01FF7B39F ====

Код:

REM GENRE Pop
REM DATE 2017
REM DISCID BF0CA40E
REM COMMENT "ExactAudioCopy v1.3"
PERFORMER "P!nk"
TITLE "Beautiful Trauma"
REM COMPOSER ""
FILE "01. Beautiful Trauma.wav" WAVE
  TRACK 01 AUDIO
    TITLE "Beautiful Trauma"
    PERFORMER "P!nk"
    REM COMPOSER ""
    ISRC USRC11701968
    INDEX 01 00:00:00
FILE "02. Revenge.wav" WAVE
  TRACK 02 AUDIO
    TITLE "Revenge"
    PERFORMER "P!nk feat. Eminem"
    REM COMPOSER ""
    ISRC USRC11701970
    INDEX 01 00:00:00
FILE "03. Whatever You Want.wav" WAVE
  TRACK 03 AUDIO
    TITLE "Whatever You Want"
    PERFORMER "P!nk"
    REM COMPOSER ""
    ISRC USRC11701970
    INDEX 01 00:00:00
FILE "04. What About Us.wav" WAVE
  TRACK 04 AUDIO
    TITLE "What About Us"
    PERFORMER "P!nk"
    REM COMPOSER ""
    ISRC USRC11701586
    INDEX 01 00:00:00
FILE "05. But We Lost It.wav" WAVE
  TRACK 05 AUDIO
    TITLE "But We Lost It"
    PERFORMER "P!nk"
    REM COMPOSER ""
    ISRC USRC11701974
    INDEX 01 00:00:00
FILE "06. Barbies.wav" WAVE
  TRACK 06 AUDIO
    TITLE "Barbies"
    PERFORMER "P!nk"
    REM COMPOSER ""
    ISRC USRC11701975
    INDEX 01 00:00:00
FILE "07. Where We Go.wav" WAVE
  TRACK 07 AUDIO
    TITLE "Where We Go"
    PERFORMER "P!nk"
    REM COMPOSER ""
    ISRC USRC11701976
    INDEX 01 00:00:00
FILE "08. For Now.wav" WAVE
  TRACK 08 AUDIO
    TITLE "For Now"
    PERFORMER "P!nk"
    REM COMPOSER ""
    ISRC USRC11701977
    INDEX 01 00:00:00
FILE "09. Secrets.wav" WAVE
  TRACK 09 AUDIO
    TITLE "Secrets"
    PERFORMER "P!nk"
    REM COMPOSER ""
    ISRC USRC11701977
    INDEX 01 00:00:00
FILE "10. Better Life.wav" WAVE
  TRACK 10 AUDIO
    TITLE "Better Life"
    PERFORMER "P!nk"
    REM COMPOSER ""
    ISRC USRC11701979
    INDEX 01 00:00:00
FILE "11. I Am Here.wav" WAVE
  TRACK 11 AUDIO
    TITLE "I Am Here"
    PERFORMER "P!nk"
    REM COMPOSER ""
    ISRC USRC11701981
    INDEX 01 00:00:00
FILE "12. Wild Hearts Can't Be Broken.wav" WAVE
  TRACK 12 AUDIO
    TITLE "Wild Hearts Can't Be Broken"
    PERFORMER "P!nk"
    REM COMPOSER ""
    ISRC USRC11701981
    INDEX 01 00:00:00
FILE "13. You Get My Love.wav" WAVE
  TRACK 13 AUDIO
    TITLE "You Get My Love"
    PERFORMER "P!nk"
    REM COMPOSER ""
    ISRC USRC11701984
    INDEX 01 00:00:00
FILE "14. White Rabbit.wav" WAVE
  TRACK 14 AUDIO
    TITLE "White Rabbit"
    PERFORMER "P!nk"
    REM COMPOSER ""
    ISRC USRC11601028
    INDEX 01 00:00:00

Этот торрент недоступен для скачивания без регистрации, однако доступен по публичной magnet-ссылке (источники с публичных трекеров). Перед использованием ссылки прочтите, пожалуйста Пользовательское соглашение, а также как можно дольше оставайтесь на раздаче! Для того, чтобы скачать сам торрент-файл (который видит больше источников), а также для того, чтобы поблагодарить релизера, вам необходимо зарегистрироваться. Если регистрироваться лень - вы можете также попробовать скачать релиз по нашим партнерским ссылкам ниже. Кроме того, зарегистрированным пользователям не показывается всплывающая реклама при скачивании.

[underverse.me].t102072.torrent
Трекер: Зарегистрирован   [ 12.04.2018 06:48 ]  

Статус: проверено (by Бишеп at 12.04.2018 06:49)
Поблагодарили: 1 человек
Тип торрента: публичный - доступные источники с открытых трекеров: 
Размер: 721 MB (занимает 0,16 DVDR, для записи нужно 1 болванка DVDR/RW)
 
 

Яндекс.Метрика powered by Sphinx


В Н И М А Н И Е
Сайт не распространяет и не хранит электронные версии произведений, а лишь бесплатно и без коммерческой выгоды (не требуя взамен платы,
SMS и т.д.) предоставляет доступ к создаваемому пользователями каталогу ссылок на торрент-файлы, которые содержат только списки хеш-сумм.
Убедительная просьба с жалобами обращаться напрямую к пользователю, разместившему торрент файл.

Вверх