Loading...
Error

(Pop) Sia - This Is Acting (Japan) (2016) [FLAC (Image+.Cue), Lossless]

Статистика раздачи
Размер:  548 MB   |    Зарегистрирован:  4 месяца 6 дней   |    Скачан:  5 раз

Полного источника не было: 2 часа 16 минут

Сидов:  0  |  0 KB/s  ]   Личеров:  0  |  0 KB/s  ]

* - сиды/пиры с внешних источников

   
 
Автор Сообщение

Бишеп Пол:Муж

12-Апр-2018 07:06

Sia - This Is Acting

Жанр: Pop
Год выпуска: 2016
Источник: CD
Производитель диска: RCA - SICP 4624
Аудиокодек: FLAC
Тип рипа: Image+.CUE
Битрейт аудио: lossless
Продолжительность: 01:00:09


Треклист:
01. Bird Set Free [04:12]
02. Alive [04:23]
03. One Million Bullets [04:12]
04. Move Your Body [04:07]
05. Unstoppable [03:37]
06. Cheap Thrills [03:31]
07. Reaper [03:39]
08. House On Fire [04:01]
09. Footprints [03:13]
10. Sweet Design [02:25]
11. Broken Glass [04:24]
12. Space Between [04:49]
13. Alive (AFSHeeN Remix) [03:17]
14. Alive (Boehm Remix) [03:51]
15. Alive (Cahill Remix) [06:20]

Код:

Exact Audio Copy V1.0 beta 6 from 9. April 2015

Отчёт EAC об извлечении, выполненном 14. февраля 2016, 17:05

Sia / This Is Acting

Дисковод: SlimtypeDVD A  DS8A9SH   Adapter: 1  ID: 0

Режим чтения                 : Достоверность
Использование точного потока : Да
Отключение кэша аудио        : Да
Использование указателей C2  : Нет

Коррекция смещения при чтении                     : 6
Способность читать области Lead-in и Lead-out     : Нет
Заполнение пропущенных сэмплов тишиной            : Да
Удаление блоков с тишиной в начале и конце        : Нет
При вычислениях CRC использовались нулевые сэмплы : Да
Интерфейс                                         : Встроенный Win32-интерфейс для Win NT/2000

Выходной формат          : Пользовательский кодировщик
Выбранный битрейт        : 128 kBit/s
Качество                 : Высокий
Добавление ID3-тега      : Нет
Утилита сжатия           : D:\Program Files (x86)\Exact Audio Copy\Flac\flac.exe
Дополнительные параметры : -V -8 -T "Date=%year%" -T "Genre=%genre%" %source%

TOC извлечённого CD

     Трек |   Старт  | Длительность | Начальный сектор | Конечный сектор
    ---------------------------------------------------------------------
       1  |  0:00.00 |    4:12.68   |           0      |      18967     
       2  |  4:12.68 |    4:23.26   |       18968      |      38718     
       3  |  8:36.19 |    4:12.14   |       38719      |      57632     
       4  | 12:48.33 |    4:07.06   |       57633      |      76163     
       5  | 16:55.39 |    3:37.70   |       76164      |      92508     
       6  | 20:33.34 |    3:31.37   |       92509      |     108370     
       7  | 24:04.71 |    3:39.57   |      108371      |     124852     
       8  | 27:44.53 |    4:01.08   |      124853      |     142935     
       9  | 31:45.61 |    3:13.11   |      142936      |     157421     
      10  | 34:58.72 |    2:25.44   |      157422      |     168340     
      11  | 37:24.41 |    4:24.74   |      168341      |     188214     
      12  | 41:49.40 |    4:49.43   |      188215      |     209932     
      13  | 46:39.08 |    3:17.41   |      209933      |     224748     
      14  | 49:56.49 |    3:51.58   |      224749      |     242131     
      15  | 53:48.32 |    6:20.14   |      242132      |     270645     

Характеристики диапазона извлечения и сообщения об ошибках

Выбранный диапазон

     Имя файла D:\My Rips\Audio\Sia - This Is Acting\Sia - This Is Acting.wav

     Пиковый уровень 100.0 %
     Скорость извлечения 4.9 X
     Качество диапазона 100.0 %
     CRC теста 9AA5CA9B
     CRC копии 9AA5CA9B
     Копирование... OK

Ошибок не произошло

 
AccurateRip: сводка
 
Трек  1  отсутствует в базе данных
Трек  2  отсутствует в базе данных
Трек  3  отсутствует в базе данных
Трек  4  отсутствует в базе данных
Трек  5  отсутствует в базе данных
Трек  6  отсутствует в базе данных
Трек  7  отсутствует в базе данных
Трек  8  отсутствует в базе данных
Трек  9  отсутствует в базе данных
Трек 10  отсутствует в базе данных
Трек 11  отсутствует в базе данных
Трек 12  отсутствует в базе данных
Трек 13  отсутствует в базе данных
Трек 14  отсутствует в базе данных
Трек 15  отсутствует в базе данных
 
Ни одного трека нет в базе AccurateRip

Конец отчёта

==== Контрольная сумма отчёта DECB9455E6856A1E819D7393C72FD5E50EF9EC624D2B5C05F6E2180B1D9049A0 ====

Код:

REM GENRE Pop
REM DATE 2016
REM DISCID B90E180F
REM COMMENT "ExactAudioCopy v1.0b6"
PERFORMER "Sia"
TITLE "This Is Acting"
FILE "Sia - This Is Acting.flac" WAVE
  TRACK 01 AUDIO
    TITLE "Bird Set Free"
    PERFORMER "Sia"
    INDEX 01 00:00:00
  TRACK 02 AUDIO
    TITLE "Alive"
    PERFORMER "Sia"
    INDEX 01 04:12:68
  TRACK 03 AUDIO
    TITLE "One Million Bullets"
    PERFORMER "Sia"
    INDEX 01 08:36:19
  TRACK 04 AUDIO
    TITLE "Move Your Body"
    PERFORMER "Sia"
    INDEX 01 12:48:33
  TRACK 05 AUDIO
    TITLE "Unstoppable"
    PERFORMER "Sia"
    INDEX 01 16:55:39
  TRACK 06 AUDIO
    TITLE "Cheap Thrills"
    PERFORMER "Sia"
    INDEX 01 20:33:34
  TRACK 07 AUDIO
    TITLE "Reaper"
    PERFORMER "Sia"
    INDEX 01 24:04:71
  TRACK 08 AUDIO
    TITLE "House On Fire"
    PERFORMER "Sia"
    INDEX 01 27:44:53
  TRACK 09 AUDIO
    TITLE "Footprints"
    PERFORMER "Sia"
    INDEX 01 31:45:61
  TRACK 10 AUDIO
    TITLE "Sweet Design"
    PERFORMER "Sia"
    INDEX 01 34:58:72
  TRACK 11 AUDIO
    TITLE "Broken Glass"
    PERFORMER "Sia"
    INDEX 01 37:24:41
  TRACK 12 AUDIO
    TITLE "Space Between"
    PERFORMER "Sia"
    INDEX 01 41:49:40
  TRACK 13 AUDIO
    TITLE "Alive (AFSHeeN Remix)"
    PERFORMER "Sia"
    INDEX 00 46:37:42
    INDEX 01 46:39:08
  TRACK 14 AUDIO
    TITLE "Alive (Boehm Remix)"
    PERFORMER "Sia"
    INDEX 00 49:55:53
    INDEX 01 49:56:49
  TRACK 15 AUDIO
    TITLE "Alive (Cahill Remix)"
    PERFORMER "Sia"
    INDEX 00 53:47:20
    INDEX 01 53:48:32

Этот торрент недоступен для скачивания без регистрации, однако доступен по публичной magnet-ссылке (источники с публичных трекеров). Перед использованием ссылки прочтите, пожалуйста Пользовательское соглашение, а также как можно дольше оставайтесь на раздаче! Для того, чтобы скачать сам торрент-файл (который видит больше источников), а также для того, чтобы поблагодарить релизера, вам необходимо зарегистрироваться. Если регистрироваться лень - вы можете также попробовать скачать релиз по нашим партнерским ссылкам ниже. Кроме того, зарегистрированным пользователям не показывается всплывающая реклама при скачивании.

[underverse.me].t102073.torrent
Трекер: Зарегистрирован   [ 12.04.2018 07:06 ]  

Статус: проверено (by Бишеп at 12.04.2018 07:06)
Поблагодарили: пока никто не поблагодарил...
Тип торрента: публичный - доступные источники с открытых трекеров: 
Размер: 548 MB (занимает 0,12 DVDR, для записи нужно 1 болванка DVDR/RW)
 
 

Яндекс.Метрика powered by Sphinx


В Н И М А Н И Е
Сайт не распространяет и не хранит электронные версии произведений, а лишь бесплатно и без коммерческой выгоды (не требуя взамен платы,
SMS и т.д.) предоставляет доступ к создаваемому пользователями каталогу ссылок на торрент-файлы, которые содержат только списки хеш-сумм.
Убедительная просьба с жалобами обращаться напрямую к пользователю, разместившему торрент файл.

Вверх