Loading...
Error

Бэтмен: Готэм в газовом свете / Batman: Gotham by Gaslight (Сэм Лью) [2018 г., мультфильм, фэнтези, боевик, криминал, детектив, BDRip 720p] MVO (Jaskier) + Original (Eng) + Sub (Rus, Eng)

Статистика раздачи
Размер:  2,06 GB   |    Зарегистрирован:  7 месяцев   |    Скачан:  9 раз

Полного источника не было: 13 дней

Сидов:  0  |  0 KB/s  ]   Личеров:  0  |  0 KB/s  ]

* - сиды/пиры с внешних источников

   
 
Автор Сообщение

90ytr90 

13-Апр-2018 03:50

Бэтмен: Готэм в газовом свете / Batman: Gotham by Gaslight


Название: Бэтмен: Готэм в газовом свете
Оригинальное название: Batman: Gotham by Gaslight
Год выпуска: 2018
Жанр: мультфильм, фэнтези, боевик, криминал, детектив
Режиссер: Сэм Лью
В главных ролях: Дженнифер Карпентер, Тара Стронг, Брюс Гринвуд, Скотт Гордон-Паттерсон, Кари Уорер, Грей ДеЛайл, Джон Ди Маджио, Энтони Хэд, Линкольн Мелчер, Юрий Ловенталь

Описание:
В альтернативной истории в 1889 году Брюс Уэйн возвращается в Готэм из своего путешествия по Европе. Город викторианской эпохи всё так же привлекает преступников. Череда загадочных и зверских убийств заставляет жителей подозревать, что убийца — Бэтмен. Тёмному Рыцарю бросает вызов самый известный маньяк XIX века — Джек-потрошитель.



Страна: США
Продолжительность: 01:17:04
Перевод: Профессиональный многоголосый закадровый (студия Jaskier)

Формат: MKV
Качество: BDRip 720p
Видео: 2539 kb/s, 1280x720, 23.976 fps
Аудио: Russian / English: AC3, 640 kb/s (6 ch)
Субтитры: английские (full)
Без рекламы.
Общее
Уникальный идентификатор : 254253650583064716266100853442998520352 (0xBF4778CF4676EF1DA5804F67B9B54A20)
Полное имя : D:ЯскъерBatman.Gotham.by.Gaslight.2018.BDRip.720p.JASKiER.mkv
Формат : Matroska
Версия формата : Version 2
Размер файла : 2,06 Гбайт
Продолжительность : 1 ч. 17 м.
Общий поток : 3822 Кбит/сек
Название фильма : MT
Дата кодирования : UTC 2018-04-13 02:37:37
Программа кодирования : mkvmerge v7.8.0 ('River Man') 32bit built on Apr 3 2015 12:11:22
Библиотека кодирования : libebml v1.3.1 + libmatroska v1.4.2

Видео
Идентификатор : 1
Формат : AVC
Формат/Информация : Advanced Video Codec
Профиль формата : High@L4.1
Настройки формата : CABAC / 9 Ref Frames
Параметр CABAC формата : Да
Параметр RefFrames формата : 9 кадров
Идентификатор кодека : V_MPEG4/ISO/AVC
Продолжительность : 1 ч. 17 м.
Битрейт : 2539 Кбит/сек
Ширина : 1280 пикселей
Высота : 720 пикселей
Соотношение сторон : 16:9
Режим частоты кадров : Постоянный
Частота кадров : 23,976 (24000/1001) кадра/сек
Цветовое пространство : YUV
Субдискретизация насыщенности : 4:2:0
Битовая глубина : 8 бит
Тип развёртки : Прогрессивная
Бит/(Пиксели*Кадры) : 0.115
Размер потока : 1,33 Гбайт (65%)
Библиотека кодирования : x264 core 148 r2597 e86f3a1
Настройки программы : cabac=1 / ref=9 / deblock=1:0:0 / analyse=0x3:0x113 / me=umh / subme=10 / psy=1 / psy_rd=1.05:0.10 / mixed_ref=1 / me_range=32 / chroma_me=1 / trellis=2 / 8x8dct=1 / cqm=0 / deadzone=21,11 / fast_pskip=0 / chroma_qp_offset=-2 / threads=12 / lookahead_threads=1 / sliced_threads=0 / nr=0 / decimate=1 / interlaced=0 / bluray_compat=0 / constrained_intra=0 / bframes=6 / b_pyramid=2 / b_adapt=2 / b_bias=0 / direct=3 / weightb=1 / open_gop=0 / weightp=2 / keyint=250 / keyint_min=23 / scenecut=40 / intra_refresh=0 / rc=2pass / mbtree=0 / bitrate=2539 / ratetol=1.0 / qcomp=0.70 / qpmin=0 / qpmax=69 / qpstep=4 / cplxblur=20.0 / qblur=0.5 / ip_ratio=1.40 / pb_ratio=1.30 / aq=2:1.00
Язык : English
Default : Да
Forced : Нет

Аудио #1
Идентификатор : 2
Формат : AC-3
Формат/Информация : Audio Coding 3
Идентификатор кодека : A_AC3
Продолжительность : 1 ч. 17 м.
Вид битрейта : Постоянный
Битрейт : 640 Кбит/сек
Каналы : 6 каналов
Расположение каналов : Front: L C R, Side: L R, LFE
Частота : 48,0 КГц
Частота кадров : 31,250 кадров/сек (1536 SPF)
Битовая глубина : 16 бит
Метод сжатия : С потерями
Размер потока : 353 Мбайт (17%)
Заголовок : Jaskier
Язык : Russian
Default : Да
Forced : Нет

Аудио #2
Идентификатор : 3
Формат : AC-3
Формат/Информация : Audio Coding 3
Идентификатор кодека : A_AC3
Продолжительность : 1 ч. 17 м.
Вид битрейта : Постоянный
Битрейт : 640 Кбит/сек
Каналы : 6 каналов
Расположение каналов : Front: L C R, Side: L R, LFE
Частота : 48,0 КГц
Частота кадров : 31,250 кадров/сек (1536 SPF)
Битовая глубина : 16 бит
Метод сжатия : С потерями
Размер потока : 353 Мбайт (17%)
Язык : English
Default : Нет
Forced : Нет

Текст
Идентификатор : 4
Формат : UTF-8
Идентификатор кодека : S_TEXT/UTF8
Идентификатор кодека/Информация : UTF-8 Plain Text
Язык : English
Default : Нет
Forced : Нет

Меню
00:00:00.000 : en:Глава 1
00:05:11.500 : en:Глава 2
00:11:23.708 : en:Глава 3
00:18:10.291 : en:Глава 4
00:25:19.624 : en:Глава 5
00:31:08.582 : en:Глава 6
00:36:21.290 : en:Глава 7
00:40:55.790 : en:Глава 8
00:47:29.665 : en:Глава 9
00:54:02.706 : en:Глава 10
01:02:06.747 : en:Глава 11
01:07:49.580 : en:Глава 12
01:13:06.413 : en:Глава 13

Этот торрент недоступен для скачивания без регистрации, однако доступен по публичной magnet-ссылке (источники с публичных трекеров). Перед использованием ссылки прочтите, пожалуйста Пользовательское соглашение, а также как можно дольше оставайтесь на раздаче! Для того, чтобы скачать сам торрент-файл (который видит больше источников), а также для того, чтобы поблагодарить релизера, вам необходимо зарегистрироваться. Если регистрироваться лень - вы можете также попробовать скачать релиз по нашим партнерским ссылкам ниже. Кроме того, зарегистрированным пользователям не показывается всплывающая реклама при скачивании.

[underverse.me].t102106.torrent
Трекер: Зарегистрирован   [ 13.04.2018 03:50 ]  

Статус: * не проверено
Поблагодарили: пока никто не поблагодарил...
Тип торрента: публичный - доступные источники с открытых трекеров: 
Размер: 2,06 GB (занимает 0,47 DVDR, для записи нужно 1 болванка DVDR/RW)
 
 
Похожие темы
Форум Тема Автор Торрент Отв. Посл. сооб.
* Зарубежные мультфильмы Бэтмен: Готэм в газовом свете / Batman: Gotham by Gaslight (Сэм Лью) [2018 г., мультфильм, фэнтези, боевик, криминал, детектив, HDRip] MVO (Jaskier) 90ytr90
22 | 1

0 | 382

14

13.04.2018 03:46

* Мультфильмы [HDDVDRip / BDRip / WEB-DL / HDTV 1080/720р] Бэтмен: Готэм в газовом свете / Batman: Gotham by Gaslight (Сэм Лью) [2018 г., мультфильм, фэнтези, боевик, криминал, детектив, BDRip 1080p] MVO (Jaskier) + Original (Eng) + Sub (Rus, Eng) 90ytr90
6 | 0

0 | 324

6

13.04.2018 03:50

Архив (мультфильмы) Бэтмен: Год первый / Batman: Year One (Сэм Лью, Лоурен Монтгомери) [2011 г., мультфильм, фантастика, боевик, приключения, DVDRip] МУХА~
1 | 0

4 | 2181

15

31.01.2018 17:07


Яндекс.Метрика powered by Sphinx


В Н И М А Н И Е
Сайт не распространяет и не хранит электронные версии произведений, а лишь бесплатно и без коммерческой выгоды (не требуя взамен платы,
SMS и т.д.) предоставляет доступ к создаваемому пользователями каталогу ссылок на торрент-файлы, которые содержат только списки хеш-сумм.
Убедительная просьба с жалобами обращаться напрямую к пользователю, разместившему торрент файл.

Вверх