Loading...
Error

(Pop Rock, Blues Rock) Van Morrison - Roll with the Punches (2017) [FLAC (Image+.Cue), Lossless]

Статистика раздачи
Размер:  517 MB   |    Зарегистрирован:  7 месяцев   |    Скачан:  9 раз

Полного источника не было: 21 час

Сидов:  0  |  0 KB/s  ]   Личеров:  0  |  0 KB/s  ]

* - сиды/пиры с внешних источников

   
 
Автор Сообщение

Бишеп Пол:Муж

01-Май-2018 11:52

Van Morrison - Roll with the Punches

Жанр: Pop Rock, Blues Rock
Год выпуска: 2017
Источник: CD
Производитель диска: Exile Productions - 5703574,
Caroline International - 5771851
Аудиокодек: FLAC
Тип рипа: Image+.CUE
Битрейт аудио: lossless
Продолжительность: 01:03:25


Треклист:
01. Roll with the Punches
02. Transformation
03. I Can Tell
04. Stormy Monday / Lonely Avenue
05. Goin' to Chicago
06. Fame
07. Too Much Trouble
08. Bring It On Home to Me
09. Ordinary People
10. How Far from God
11. Teardrops from My Eyes
12. Automobile Blues
13. Benediction
14. Mean Old World
15. Ride On Josephine

Код:

Exact Audio Copy V1.3 from 2. September 2016

Отчёт EAC об извлечении, выполненном 7. ноября 2017, 21:30

Van Morrison / Roll with the Punches

Дисковод: Optiarc DVD RW AD-7240S   Adapter: 1  ID: 3

Режим чтения                 : Достоверность
Использование точного потока : Да
Отключение кэша аудио        : Да
Использование указателей C2  : Нет

Коррекция смещения при чтении                     : 48
Способность читать области Lead-in и Lead-out     : Нет
Заполнение пропущенных сэмплов тишиной            : Да
Удаление блоков с тишиной в начале и конце        : Нет
При вычислениях CRC использовались нулевые сэмплы : Да
Интерфейс                                         : Встроенный Win32-интерфейс для Win NT/2000

Выходной формат          : Пользовательский кодировщик
Выбранный битрейт        : 768 kBit/s
Качество                 : Высокий
Добавление ID3-тега      : Нет
Утилита сжатия           : C:\Program Files (x86)\Exact Audio Copy\FLAC\FLAC.EXE
Дополнительные параметры : -6 -V -T "ARTIST=%artist%" -T "TITLE=%title%" -T "ALBUM=%albumtitle%" -T "DATE=%year%" -T "TRACKNUMBER=%tracknr%" -T "GENRE=%genre%" -T "COMMENT=%comment%" -T "BAND=%albuminterpret%" -T "ALBUMARTIST=%albuminterpret%" -T "COMPOSER=%composer%" %haslyrics%--tag-from-file=LYRICS="%lyricsfile%"%haslyrics% -T "DISCNUMBER=%cdnumber%" -T "TOTALDISCS=%totalcds%" -T "TOTALTRACKS=%numtracks%" %hascover%--picture="%coverfile%"%hascover% %source% -o %dest%

TOC извлечённого CD

     Трек |   Старт  | Длительность | Начальный сектор | Конечный сектор
    ---------------------------------------------------------------------
       1  |  0:00.00 |    3:58.57   |           0      |      17906     
       2  |  3:58.57 |    3:31.59   |       17907      |      33790     
       3  |  7:30.41 |    3:51.29   |       33791      |      51144     
       4  | 11:21.70 |    5:30.43   |       51145      |      75937     
       5  | 16:52.38 |    5:22.07   |       75938      |     100094     
       6  | 22:14.45 |    5:06.74   |      100095      |     123118     
       7  | 27:21.44 |    3:04.64   |      123119      |     136982     
       8  | 30:26.33 |    5:39.06   |      136983      |     162413     
       9  | 36:05.39 |    4:41.46   |      162414      |     183534     
      10  | 40:47.10 |    3:47.41   |      183535      |     200600     
      11  | 44:34.51 |    3:53.65   |      200601      |     218140     
      12  | 48:28.41 |    3:39.52   |      218141      |     234617     
      13  | 52:08.18 |    3:12.24   |      234618      |     249041     
      14  | 55:20.42 |    4:59.40   |      249042      |     271506     
      15  | 60:20.07 |    3:03.09   |      271507      |     285240     

Характеристики диапазона извлечения и сообщения об ошибках

Выбранный диапазон

     Имя файла K:\My Uploads-11\Van Morrison - Roll with the Punches  2017  63'25''\Van Morrison - Roll with the Punches.wav

     Пиковый уровень 100.0 %
     Скорость извлечения 4.3 X
     Качество диапазона 100.0 %
     CRC теста E2970E1D
     CRC копии E2970E1D
     Копирование... OK

Ошибок не произошло

Конец отчёта

---- CUETools DB Plugin V2.1.6

[CTDB TOCID: 1bNfEL6ADHijPZzZI2ty3caymDQ-] found
Submit result: 1bNfEL6ADHijPZzZI2ty3caymDQ- has been confirmed
Track | CTDB Status
  1   | (234/235) Accurately ripped
  2   | (235/235) Accurately ripped
  3   | (235/235) Accurately ripped
  4   | (234/235) Accurately ripped
  5   | (235/235) Accurately ripped
  6   | (235/235) Accurately ripped
  7   | (234/235) Accurately ripped
  8   | (235/235) Accurately ripped
  9   | (235/235) Accurately ripped
 10   | (235/235) Accurately ripped
 11   | (235/235) Accurately ripped
 12   | (235/235) Accurately ripped
 13   | (234/235) Accurately ripped
 14   | (234/235) Accurately ripped
 15   | (233/235) Accurately ripped

==== Контрольная сумма отчёта 5C90F56FA691E841B48FBDDF28DD7682E6DB10A96187F59BCE0C88495DEFEAFF ====

Код:

REM GENRE Blues
REM DATE 2017
REM DISCID BA0EDB0F
REM COMMENT "ExactAudioCopy v1.3"
PERFORMER "Van Morrison"
TITLE "Roll with the Punches"
REM COMPOSER ""
FILE "Van Morrison - Roll with the Punches.flac" WAVE
  TRACK 01 AUDIO
    TITLE "Roll with the Punches"
    PERFORMER "Van Morrison"
    REM COMPOSER ""
    INDEX 01 00:00:00
  TRACK 02 AUDIO
    TITLE "Transformation"
    PERFORMER "Van Morrison"
    REM COMPOSER ""
    INDEX 01 03:58:57
  TRACK 03 AUDIO
    TITLE "I Can Tell"
    PERFORMER "Van Morrison"
    REM COMPOSER ""
    INDEX 01 07:30:41
  TRACK 04 AUDIO
    TITLE "Stormy Monday / Lonely Avenue"
    PERFORMER "Van Morrison"
    REM COMPOSER ""
    INDEX 01 11:21:70
  TRACK 05 AUDIO
    TITLE "Goin' to Chicago"
    PERFORMER "Van Morrison"
    REM COMPOSER ""
    INDEX 01 16:52:38
  TRACK 06 AUDIO
    TITLE "Fame"
    PERFORMER "Van Morrison"
    REM COMPOSER ""
    INDEX 01 22:14:45
  TRACK 07 AUDIO
    TITLE "Too Much Trouble"
    PERFORMER "Van Morrison"
    REM COMPOSER ""
    INDEX 01 27:21:44
  TRACK 08 AUDIO
    TITLE "Bring It On Home to Me"
    PERFORMER "Van Morrison"
    REM COMPOSER ""
    INDEX 01 30:26:33
  TRACK 09 AUDIO
    TITLE "Ordinary People"
    PERFORMER "Van Morrison"
    REM COMPOSER ""
    INDEX 01 36:05:39
  TRACK 10 AUDIO
    TITLE "How Far from God"
    PERFORMER "Van Morrison"
    REM COMPOSER ""
    INDEX 01 40:47:10
  TRACK 11 AUDIO
    TITLE "Teardrops from My Eyes"
    PERFORMER "Van Morrison"
    REM COMPOSER ""
    INDEX 01 44:34:51
  TRACK 12 AUDIO
    TITLE "Automobile Blues"
    PERFORMER "Van Morrison"
    REM COMPOSER ""
    INDEX 01 48:28:41
  TRACK 13 AUDIO
    TITLE "Benediction"
    PERFORMER "Van Morrison"
    REM COMPOSER ""
    INDEX 01 52:08:18
  TRACK 14 AUDIO
    TITLE "Mean Old World"
    PERFORMER "Van Morrison"
    REM COMPOSER ""
    INDEX 01 55:20:42
  TRACK 15 AUDIO
    TITLE "Ride On Josephine"
    PERFORMER "Van Morrison"
    REM COMPOSER ""
    INDEX 01 60:20:07

Этот торрент недоступен для скачивания без регистрации, однако доступен по публичной magnet-ссылке (источники с публичных трекеров). Перед использованием ссылки прочтите, пожалуйста Пользовательское соглашение, а также как можно дольше оставайтесь на раздаче! Для того, чтобы скачать сам торрент-файл (который видит больше источников), а также для того, чтобы поблагодарить релизера, вам необходимо зарегистрироваться. Если регистрироваться лень - вы можете также попробовать скачать релиз по нашим партнерским ссылкам ниже. Кроме того, зарегистрированным пользователям не показывается всплывающая реклама при скачивании.

[underverse.me].t103319.torrent
Трекер: Зарегистрирован   [ 01.05.2018 11:52 ]  

Статус: проверено (by Бишеп at 01.05.2018 11:53)
Поблагодарили: пока никто не поблагодарил...
Тип торрента: публичный - доступные источники с открытых трекеров: 
Размер: 517 MB (занимает 0,12 DVDR, для записи нужно 1 болванка DVDR/RW)
 
 
Похожие темы
Форум Тема Автор Торрент Отв. Посл. сооб.
Зарубежная Pop Музыка (Pop rock, Pop) Red Canzian - Testimone Del Tempo (2018) [MP3, 320 kbps] 90ytr90
1 | 0

0 | 640

2

18.02.2018 08:17

Зарубежная Pop Музыка (Pop Rock, Latin) Alvaro Soler - Mar De Colores (2018) [MP3, 320 kbps CBR] 90ytr90
37 | 2

0 | 348

5

06.10.2018 18:48

Зарубежная Pop Музыка (Pop Rock, Elegant Power Pop) Roxette - XXX-The 30 Biggest Hits (2CD) (2014) [MP3, 320 kbps CBR] 90ytr90
38 | 8

0 | 135

5

04.12.2018 08:43

Сборники Pop, Disco, Dance (Pop Rock,) VA - 101 Power Ballads (Box Set, 5CD) (2017) [MP3, 320 kbps CBR] 90ytr90
18 | 1

0 | 225

9

04.10.2018 18:12

Зарубежный Hard, Progressive, Soft, Melodic, AOR, Folk, Classic Rock (Pop Rock, Christian) Housefires - We Say Yes (2017) [MP3, 320 kbps CBR] Darkferse
2 | 0

0 | 508

2

06.06.2017 10:20

Зарубежный Hard, Progressive, Soft, Melodic, AOR, Folk, Classic Rock (Pop Rock, Glam Rock, Synthpop) Sparks - Hippopotamus (2017) [MP3, 320 kbps CBR] Darkferse
1 | 0

0 | 1050

5

13.09.2017 14:57

Зарубежный Hard, Progressive, Soft, Melodic, AOR, Folk, Classic Rock (Pop Rock, Britpop) Ben Brookes - The Motor Car & the Weather Balloon (2017) [MP3, 320 kbps CBR] Darkferse
2 | 0

0 | 431

1

03.01.2018 01:09

Зарубежный Hard, Progressive, Soft, Melodic, AOR, Folk, Classic Rock (Pop Rock, Soft Rock) Sting - The Best Of 25 Years (2 CD) (2011) [MP3, 320 kbps CBR] 90ytr90
49 | 8

0 | 114

5

04.12.2018 08:36

Зарубежная Поп Музыка (Lossless) (Pop Rock, Jazz) George Michael - Older (1996) [FLAC (Tracks+.Cue), Lossless] Бишеп
9 | 1

0 | 1833

11

07.11.2016 18:29

Зарубежная Поп Музыка (Lossless) (Pop Rock, Soft Rock) OneRepublic - Native (Deluxe Edition) (2013) [FLAC (Image+.CUE), Lossless] Бишеп
0 | 0

1 | 2542

14

03.11.2013 12:04


Яндекс.Метрика powered by Sphinx


В Н И М А Н И Е
Сайт не распространяет и не хранит электронные версии произведений, а лишь бесплатно и без коммерческой выгоды (не требуя взамен платы,
SMS и т.д.) предоставляет доступ к создаваемому пользователями каталогу ссылок на торрент-файлы, которые содержат только списки хеш-сумм.
Убедительная просьба с жалобами обращаться напрямую к пользователю, разместившему торрент файл.

Вверх