Loading...
Error

(Pop, Synthpop, Disco) C.C. Catch - The Best Of (2004) [FLAC (Tracks+.CUE), Lossless]

Статистика раздачи
Размер:  623 MB   |    Зарегистрирован:  7 месяцев   |    Скачан:  5 раз
Сидов:  1  |  0 KB/s  ]   Личеров:  0  |  0 KB/s  ]

* - сиды/пиры с внешних источников

   
 
Автор Сообщение

Бишеп Пол:Муж

07-Май-2018 03:56

C.C. Catch - The Best Of

Жанр: Pop, Synthpop, Disco
Год выпуска: 2004
Источник: CD
Производитель диска: BMG Russia - 82876 62708 2
Аудиокодек: FLAC
Тип рипа: Tracks+.CUE
Битрейт аудио: lossless
Продолжительность: 01:17:30


Треклист:
01. I Can Lose My Heart Tonight (New Version)
02. Are You Man Enough
03. Soul Survivor (New Version)
04. You Can`t Run Away From It
05. Heaven And Hell
06. Like A Hurricane
07. Backseat Of Your Caddilac
08. Strngers By Night
09. Hollywood Nights
10. Born On The Wind
11. Cause You Are Young
12. Heartbreak Hotel
13. Stay
14. Fire Of Love
15. Heartbeat City
16. Don`t Be A Hero
17. You Can Be My Lucky Star
18. Smokey Joe`s Cafe
19. House Of Mystic Lights
20. Wild Fire
21. Megamix `98 (Long Version)

Код:

Exact Audio Copy V1.0 beta 3 from 29. August 2011

EAC extraction logfile from 27. September 2016, 20:00

C.C. Catch / The Best Of

Used drive  : TSSTcorpCDDVDW SH-224DB   Adapter: 0  ID: 1

Read mode               : Secure
Utilize accurate stream : Yes
Defeat audio cache      : Yes
Make use of C2 pointers : No

Read offset correction                      : 6
Overread into Lead-In and Lead-Out          : No
Fill up missing offset samples with silence : Yes
Delete leading and trailing silent blocks   : No
Null samples used in CRC calculations       : Yes
Used interface                              : Native Win32 interface for Win NT & 2000
Gap handling                                : Appended to previous track

Used output format              : User Defined Encoder
Selected bitrate                : 1024 kBit/s
Quality                         : High
Add ID3 tag                     : No
Command line compressor         : D:\Program Files\Exact Audio Copy\Flac\flac.exe
Additional command line options : -V -8 -T "Genre=%genre%" -T "Artist=%artist%" -T "Title=%title%" -T "Album=%albumtitle%" -T "Date=%year%" -T "Tracknumber=%tracknr%" -T "Comment=%comment%" %source%

TOC of the extracted CD

     Track |   Start  |  Length  | Start sector | End sector
    ---------------------------------------------------------
        1  |  0:00.00 |  3:14.00 |         0    |    14549   
        2  |  3:14.00 |  3:38.00 |     14550    |    30899   
        3  |  6:52.00 |  3:39.36 |     30900    |    47360   
        4  | 10:31.36 |  3:14.39 |     47361    |    61949   
        5  | 13:46.00 |  3:39.26 |     61950    |    78400   
        6  | 17:25.26 |  3:16.00 |     78401    |    93100   
        7  | 20:41.26 |  3:22.00 |     93101    |   108250   
        8  | 24:03.26 |  3:39.30 |    108251    |   124705   
        9  | 27:42.56 |  3:12.00 |    124706    |   139105   
       10  | 30:54.56 |  3:52.00 |    139106    |   156505   
       11  | 34:46.56 |  3:30.00 |    156506    |   172255   
       12  | 38:16.56 |  3:35.14 |    172256    |   188394   
       13  | 41:51.70 |  3:26.00 |    188395    |   203844   
       14  | 45:17.70 |  2:58.00 |    203845    |   217194   
       15  | 48:15.70 |  3:37.03 |    217195    |   233472   
       16  | 51:52.73 |  3:34.00 |    233473    |   249522   
       17  | 55:26.73 |  3:38.00 |    249523    |   265872   
       18  | 59:04.73 |  3:44.00 |    265873    |   282672   
       19  | 62:48.73 |  3:04.00 |    282673    |   296472   
       20  | 65:52.73 |  3:38.00 |    296473    |   312822   
       21  | 69:30.73 |  7:59.27 |    312823    |   348774   

Track  1

     Filename D:\Desktop\C.C. Catch - The Best Of (2004)\01. I Can Lose My Heart Tonight (New Version).wav

     Pre-gap length  0:00:02.00

     Peak level 100.0 %
     Extraction speed 4.5 X
     Track quality 100.0 %
     Test CRC 25263251
     Copy CRC 25263251
     Accurately ripped (confidence 1)  [F3EECD17]  (AR v2)
     Copy OK

Track  2

     Filename D:\Desktop\C.C. Catch - The Best Of (2004)\02. Are You Man Enough.wav

     Pre-gap length  0:00:02.00

     Peak level 97.7 %
     Extraction speed 5.0 X
     Track quality 100.0 %
     Test CRC B7B984AF
     Copy CRC B7B984AF
     Accurately ripped (confidence 1)  [E1FD15AB]  (AR v2)
     Copy OK

Track  3

     Filename D:\Desktop\C.C. Catch - The Best Of (2004)\03. Soul Survivor (New Version).wav

     Pre-gap length  0:00:02.00

     Peak level 97.1 %
     Extraction speed 4.2 X
     Track quality 99.9 %
     Test CRC 81AE1D88
     Copy CRC 81AE1D88
     Accurately ripped (confidence 1)  [39DF70E0]  (AR v2)
     Copy OK

Track  4

     Filename D:\Desktop\C.C. Catch - The Best Of (2004)\04. You Can`t Run Away From It.wav

     Pre-gap length  0:00:02.00

     Peak level 97.7 %
     Extraction speed 4.2 X
     Track quality 99.9 %
     Test CRC 7DF7190A
     Copy CRC 7DF7190A
     Accurately ripped (confidence 1)  [09915195]  (AR v2)
     Copy OK

Track  5

     Filename D:\Desktop\C.C. Catch - The Best Of (2004)\05. Heaven And Hell.wav

     Pre-gap length  0:00:02.00

     Peak level 99.0 %
     Extraction speed 6.0 X
     Track quality 100.0 %
     Test CRC DBD73BE9
     Copy CRC DBD73BE9
     Accurately ripped (confidence 1)  [9F52A4D1]  (AR v2)
     Copy OK

Track  6

     Filename D:\Desktop\C.C. Catch - The Best Of (2004)\06. Like A Hurricane.wav

     Pre-gap length  0:00:02.00

     Peak level 97.7 %
     Extraction speed 6.1 X
     Track quality 100.0 %
     Test CRC A3AA6117
     Copy CRC A3AA6117
     Accurately ripped (confidence 1)  [6F2CDD1C]  (AR v2)
     Copy OK

Track  7

     Filename D:\Desktop\C.C. Catch - The Best Of (2004)\07. Backseat Of Your Caddilac.wav

     Pre-gap length  0:00:02.00

     Peak level 97.7 %
     Extraction speed 6.4 X
     Track quality 100.0 %
     Test CRC 8DB0C334
     Copy CRC 8DB0C334
     Accurately ripped (confidence 1)  [BBAB062A]  (AR v2)
     Copy OK

Track  8

     Filename D:\Desktop\C.C. Catch - The Best Of (2004)\08. Strngers By Night.wav

     Pre-gap length  0:00:02.00

     Peak level 97.7 %
     Extraction speed 6.7 X
     Track quality 100.0 %
     Test CRC B24D5C47
     Copy CRC B24D5C47
     Accurately ripped (confidence 1)  [761FC1E7]  (AR v2)
     Copy OK

Track  9

     Filename D:\Desktop\C.C. Catch - The Best Of (2004)\09. Hollywood Nights.wav

     Pre-gap length  0:00:02.00

     Peak level 97.7 %
     Extraction speed 6.9 X
     Track quality 100.0 %
     Test CRC 59C1B29D
     Copy CRC 59C1B29D
     Accurately ripped (confidence 1)  [4CA9BA5A]  (AR v2)
     Copy OK

Track 10

     Filename D:\Desktop\C.C. Catch - The Best Of (2004)\10. Born On The Wind.wav

     Pre-gap length  0:00:02.00

     Peak level 97.7 %
     Extraction speed 7.3 X
     Track quality 100.0 %
     Test CRC 6D452FCE
     Copy CRC 6D452FCE
     Accurately ripped (confidence 1)  [2AA504AE]  (AR v2)
     Copy OK

Track 11

     Filename D:\Desktop\C.C. Catch - The Best Of (2004)\11. Cause  You Are Young.wav

     Pre-gap length  0:00:02.00

     Peak level 99.4 %
     Extraction speed 7.3 X
     Track quality 100.0 %
     Test CRC 072292CB
     Copy CRC 072292CB
     Accurately ripped (confidence 1)  [E7FD0E76]  (AR v2)
     Copy OK

Track 12

     Filename D:\Desktop\C.C. Catch - The Best Of (2004)\12. Heartbreak Hotel.wav

     Pre-gap length  0:00:02.00

     Peak level 97.7 %
     Extraction speed 7.6 X
     Track quality 100.0 %
     Test CRC 80926238
     Copy CRC 80926238
     Accurately ripped (confidence 1)  [E692C96D]  (AR v2)
     Copy OK

Track 13

     Filename D:\Desktop\C.C. Catch - The Best Of (2004)\13. Stay.wav

     Pre-gap length  0:00:02.00

     Peak level 97.7 %
     Extraction speed 7.7 X
     Track quality 100.0 %
     Test CRC 3A392A23
     Copy CRC 3A392A23
     Accurately ripped (confidence 1)  [9D441835]  (AR v2)
     Copy OK

Track 14

     Filename D:\Desktop\C.C. Catch - The Best Of (2004)\14. Fire Of Love.wav

     Pre-gap length  0:00:02.00

     Peak level 97.7 %
     Extraction speed 7.6 X
     Track quality 100.0 %
     Test CRC 755DE574
     Copy CRC 755DE574
     Accurately ripped (confidence 1)  [ACEB6E41]  (AR v2)
     Copy OK

Track 15

     Filename D:\Desktop\C.C. Catch - The Best Of (2004)\15. Heartbeat City.wav

     Pre-gap length  0:00:02.00

     Peak level 97.7 %
     Extraction speed 8.2 X
     Track quality 100.0 %
     Test CRC E1FD8236
     Copy CRC E1FD8236
     Accurately ripped (confidence 1)  [97701FB8]  (AR v2)
     Copy OK

Track 16

     Filename D:\Desktop\C.C. Catch - The Best Of (2004)\16. Don`t Be A Hero.wav

     Pre-gap length  0:00:02.00

     Peak level 97.7 %
     Extraction speed 8.2 X
     Track quality 100.0 %
     Test CRC 46CBFE2D
     Copy CRC 46CBFE2D
     Accurately ripped (confidence 1)  [08BFD548]  (AR v2)
     Copy OK

Track 17

     Filename D:\Desktop\C.C. Catch - The Best Of (2004)\17. You Can Be My Lucky Star.wav

     Pre-gap length  0:00:02.00

     Peak level 97.7 %
     Extraction speed 8.4 X
     Track quality 100.0 %
     Test CRC 716D438E
     Copy CRC 716D438E
     Accurately ripped (confidence 1)  [FC086099]  (AR v2)
     Copy OK

Track 18

     Filename D:\Desktop\C.C. Catch - The Best Of (2004)\18. Smokey Joe`s Cafe.wav

     Pre-gap length  0:00:02.00

     Peak level 97.7 %
     Extraction speed 8.7 X
     Track quality 100.0 %
     Test CRC 8F599615
     Copy CRC 8F599615
     Accurately ripped (confidence 1)  [734ADE4D]  (AR v2)
     Copy OK

Track 19

     Filename D:\Desktop\C.C. Catch - The Best Of (2004)\19. House Of Mystic Lights.wav

     Pre-gap length  0:00:02.00

     Peak level 97.7 %
     Extraction speed 8.4 X
     Track quality 100.0 %
     Test CRC 0977200B
     Copy CRC 0977200B
     Accurately ripped (confidence 1)  [1B7ECE8F]  (AR v2)
     Copy OK

Track 20

     Filename D:\Desktop\C.C. Catch - The Best Of (2004)\20. Wild Fire.wav

     Pre-gap length  0:00:02.00

     Peak level 97.7 %
     Extraction speed 8.8 X
     Track quality 100.0 %
     Test CRC 91692507
     Copy CRC 91692507
     Accurately ripped (confidence 1)  [761A13B3]  (AR v2)
     Copy OK

Track 21

     Filename D:\Desktop\C.C. Catch - The Best Of (2004)\21. Megamix `98 (Long Version).wav

     Pre-gap length  0:00:02.00

     Peak level 97.7 %
     Extraction speed 9.9 X
     Track quality 100.0 %
     Test CRC D0903112
     Copy CRC D0903112
     Accurately ripped (confidence 1)  [356CD03A]  (AR v2)
     Copy OK

All tracks accurately ripped

No errors occurred

End of status report

==== Log checksum FE4C02B09A8F925CE8BA2C46AAFCEF4363E766EC42B50DCBF25B0926B7F85117 ====

Код:

REM GENRE Disco
REM DATE 2004
REM DISCID 41122A15
REM COMMENT "ExactAudioCopy v1.0b3"
PERFORMER "C.C. Catch"
TITLE "The Best Of"
FILE "01. I Can Lose My Heart Tonight (New Version).wav" WAVE
  TRACK 01 AUDIO
    TITLE "I Can Lose My Heart Tonight (New Version)"
    PERFORMER "C.C. Catch"
    FLAGS DCP
    INDEX 01 00:00:00
  TRACK 02 AUDIO
    TITLE "Are You Man Enough"
    PERFORMER "C.C. Catch"
    FLAGS DCP
    INDEX 00 03:12:00
FILE "02. Are You Man Enough.wav" WAVE
    INDEX 01 00:00:00
  TRACK 03 AUDIO
    TITLE "Soul Survivor (New Version)"
    PERFORMER "C.C. Catch"
    FLAGS DCP
    INDEX 00 03:36:00
FILE "03. Soul Survivor (New Version).wav" WAVE
    INDEX 01 00:00:00
  TRACK 04 AUDIO
    TITLE "You Can`t Run Away From It"
    PERFORMER "C.C. Catch"
    FLAGS DCP
    INDEX 00 03:37:36
FILE "04. You Can`t Run Away From It.wav" WAVE
    INDEX 01 00:00:00
  TRACK 05 AUDIO
    TITLE "Heaven And Hell"
    PERFORMER "C.C. Catch"
    FLAGS DCP
    INDEX 00 03:12:39
FILE "05. Heaven And Hell.wav" WAVE
    INDEX 01 00:00:00
  TRACK 06 AUDIO
    TITLE "Like A Hurricane"
    PERFORMER "C.C. Catch"
    FLAGS DCP
    INDEX 00 03:37:26
FILE "06. Like A Hurricane.wav" WAVE
    INDEX 01 00:00:00
  TRACK 07 AUDIO
    TITLE "Backseat Of Your Caddilac"
    PERFORMER "C.C. Catch"
    FLAGS DCP
    INDEX 00 03:14:00
FILE "07. Backseat Of Your Caddilac.wav" WAVE
    INDEX 01 00:00:00
  TRACK 08 AUDIO
    TITLE "Strngers By Night"
    PERFORMER "C.C. Catch"
    FLAGS DCP
    INDEX 00 03:20:00
FILE "08. Strngers By Night.wav" WAVE
    INDEX 01 00:00:00
  TRACK 09 AUDIO
    TITLE "Hollywood Nights"
    PERFORMER "C.C. Catch"
    FLAGS DCP
    INDEX 00 03:37:30
FILE "09. Hollywood Nights.wav" WAVE
    INDEX 01 00:00:00
  TRACK 10 AUDIO
    TITLE "Born On The Wind"
    PERFORMER "C.C. Catch"
    FLAGS DCP
    INDEX 00 03:10:00
FILE "10. Born On The Wind.wav" WAVE
    INDEX 01 00:00:00
  TRACK 11 AUDIO
    TITLE "Cause  You Are Young"
    PERFORMER "C.C. Catch"
    FLAGS DCP
    INDEX 00 03:50:00
FILE "11. Cause  You Are Young.wav" WAVE
    INDEX 01 00:00:00
  TRACK 12 AUDIO
    TITLE "Heartbreak Hotel"
    PERFORMER "C.C. Catch"
    FLAGS DCP
    INDEX 00 03:28:00
FILE "12. Heartbreak Hotel.wav" WAVE
    INDEX 01 00:00:00
  TRACK 13 AUDIO
    TITLE "Stay"
    PERFORMER "C.C. Catch"
    FLAGS DCP
    INDEX 00 03:33:14
FILE "13. Stay.wav" WAVE
    INDEX 01 00:00:00
  TRACK 14 AUDIO
    TITLE "Fire Of Love"
    PERFORMER "C.C. Catch"
    FLAGS DCP
    INDEX 00 03:24:00
FILE "14. Fire Of Love.wav" WAVE
    INDEX 01 00:00:00
  TRACK 15 AUDIO
    TITLE "Heartbeat City"
    PERFORMER "C.C. Catch"
    FLAGS DCP
    INDEX 00 02:56:00
FILE "15. Heartbeat City.wav" WAVE
    INDEX 01 00:00:00
  TRACK 16 AUDIO
    TITLE "Don`t Be A Hero"
    PERFORMER "C.C. Catch"
    FLAGS DCP
    INDEX 00 03:35:03
FILE "16. Don`t Be A Hero.wav" WAVE
    INDEX 01 00:00:00
  TRACK 17 AUDIO
    TITLE "You Can Be My Lucky Star"
    PERFORMER "C.C. Catch"
    FLAGS DCP
    INDEX 00 03:32:00
FILE "17. You Can Be My Lucky Star.wav" WAVE
    INDEX 01 00:00:00
  TRACK 18 AUDIO
    TITLE "Smokey Joe`s Cafe"
    PERFORMER "C.C. Catch"
    FLAGS DCP
    INDEX 00 03:36:00
FILE "18. Smokey Joe`s Cafe.wav" WAVE
    INDEX 01 00:00:00
  TRACK 19 AUDIO
    TITLE "House Of Mystic Lights"
    PERFORMER "C.C. Catch"
    FLAGS DCP
    INDEX 00 03:42:00
FILE "19. House Of Mystic Lights.wav" WAVE
    INDEX 01 00:00:00
  TRACK 20 AUDIO
    TITLE "Wild Fire"
    PERFORMER "C.C. Catch"
    FLAGS DCP
    INDEX 00 03:02:00
FILE "20. Wild Fire.wav" WAVE
    INDEX 01 00:00:00
  TRACK 21 AUDIO
    TITLE "Megamix `98 (Long Version)"
    PERFORMER "C.C. Catch"
    FLAGS DCP
    INDEX 00 03:36:00
FILE "21. Megamix `98 (Long Version).wav" WAVE
    INDEX 01 00:00:00

Этот торрент недоступен для скачивания без регистрации, однако доступен по публичной magnet-ссылке (источники с публичных трекеров). Перед использованием ссылки прочтите, пожалуйста Пользовательское соглашение, а также как можно дольше оставайтесь на раздаче! Для того, чтобы скачать сам торрент-файл (который видит больше источников), а также для того, чтобы поблагодарить релизера, вам необходимо зарегистрироваться. Если регистрироваться лень - вы можете также попробовать скачать релиз по нашим партнерским ссылкам ниже. Кроме того, зарегистрированным пользователям не показывается всплывающая реклама при скачивании.

[underverse.me].t103716.torrent
Трекер: Зарегистрирован   [ 07.05.2018 03:56 ]  

Статус: проверено (by Бишеп at 07.05.2018 03:58)
Поблагодарили: 2 человека
Тип торрента: публичный - доступные источники с открытых трекеров: 
Размер: 623 MB (занимает 0,14 DVDR, для записи нужно 1 болванка DVDR/RW)
 
 
Похожие темы
Форум Тема Автор Торрент Отв. Посл. сооб.
Зарубежная Pop Музыка (Pop, Synth-pop) Hailee Steinfeld - Haiz EP (2015) [MP3, 320 kbps] 90ytr90
2 | 0

0 | 735

3

06.11.2016 14:33

Зарубежная Pop Музыка (Pop, Synthpop) Secret Weapons - As The Setting Sun Comes Crashing Down On Me (2017) [MP3, 320 kbps CBR] Darkferse
1 | 1

0 | 758

4

07.09.2017 12:07

Зарубежная Pop Музыка (Pop, Synthpop, Nu-Disco) Kylie Minogue - Golden [Deluxe Edition] (2018) [MP3, 320 kbps CBR] 90ytr90
33 | 6

0 | 689

5

08.04.2018 05:35

Зарубежная Pop Музыка (Pop, Synthpop) Hayley Kiyoko - Expectations (2018) [MP3, 320 kbps CBR] 90ytr90
6 | 4

0 | 468

7

08.04.2018 05:45

Зарубежная Pop Музыка (Pop, Synthpop, R&B) Dua Lipa - Dua Lipa (2CD, Complete Edition) (2018) [MP3, 320 kbps CBR] 90ytr90
23 | 6

0 | 285

2

28.10.2018 06:25

Сборники Pop, Disco, Dance (Pop, Synthpop, Latin, Brit-Pop, Indie Pop, Hip-Hop, Dancehall, Alternative) VA - Billboard Hot 100 Singles Chart [28.07] (2018) [MP3, 320 kbps CBR] 90ytr90
33 | 1

0 | 453

6

28.07.2018 07:06

Сборники Pop, Disco, Dance (Pop, Synth pop, Rock, Funk) VA - The Greatest Eighties Album (4CD) (2018) [MP3, 320 kbps CBR] 90ytr90
63 | 3

0 | 280

8

28.10.2018 07:02

Сборники (Pop, Synthpop, Folk, Schlager, Volksmusik, Indie) VA - Super Sommer Hits 2018 (2CD) (2018) [MP3, 320 kbps CBR] 90ytr90
2 | 0

0 | 222

4

19.07.2018 20:09

Зарубежная Поп Музыка (Lossless) (Pop, Synthpop) Falco - The Remix Hit Collection (1991) [FLAC (Image+.Cue), Lossless] Бишеп
2 | 0

0 | 1045

6

15.11.2016 19:47

Зарубежная Поп Музыка (Lossless) (Pop, Synthpop) Eurythmics - We Too Are One (1989) [FLAC (Image+.Cue), Lossless] Бишеп
5 | 0

0 | 790

6

08.11.2016 05:11


Яндекс.Метрика powered by Sphinx


В Н И М А Н И Е
Сайт не распространяет и не хранит электронные версии произведений, а лишь бесплатно и без коммерческой выгоды (не требуя взамен платы,
SMS и т.д.) предоставляет доступ к создаваемому пользователями каталогу ссылок на торрент-файлы, которые содержат только списки хеш-сумм.
Убедительная просьба с жалобами обращаться напрямую к пользователю, разместившему торрент файл.

Вверх