Loading...
Error

(Italo-Disco, Italodance) Ken Laszlo - Album 2000 (2CD) (2000) [FLAC (Tracks+.CUE), Lossless]

Статистика раздачи
Размер:  810 MB   |    Зарегистрирован:  7 месяцев   |    Скачан:  7 раз
Сидов:  1  |  0 KB/s  ]   Личеров:  0  |  0 KB/s  ]

* - сиды/пиры с внешних источников

   
 
Автор Сообщение

Бишеп Пол:Муж

07-Май-2018 08:50

Ken Laszlo - Album 2000

Жанр: Italo-Disco, Italodance
Год выпуска: 2000
Источник: CD
Производитель диска: VMP - VMHP 052-2
Аудиокодек: FLAC
Тип рипа: Tracks+.CUE
Битрейт аудио: lossless
Продолжительность: 01:34:14

Треклист:
01. Hey Hey Guy 2000
02. Tonight 2000
03. You're A Woman
04. Love Things
05. E-mail Box
06. A Wonderful Love
07. Summer Nights
08. What A Lonely Night
09. When I Fall In Love
10. Video Killed The Radio Star
11. What's Your Love
12. Whatever Love
13. Video Killed The Radio Star (Factory Team Remix)
14. Hey Hey Guy 2000 (Long Edit)

Код:

Exact Audio Copy V0.99 prebeta 4 from 23. January 2008

EAC extraction logfile from 30. March 2008, 14:21

Ken Laszlo / Album 2000 (CD1)

Used drive  : PIONEER DVD-RW  DVR-107D   Adapter: 1  ID: 1

Read mode               : Secure
Utilize accurate stream : Yes
Defeat audio cache      : Yes
Make use of C2 pointers : No

Read offset correction                      : 48
Overread into Lead-In and Lead-Out          : No
Fill up missing offset samples with silence : Yes
Delete leading and trailing silent blocks   : No
Null samples used in CRC calculations       : Yes
Used interface                              : Native Win32 interface for Win NT & 2000
Gap handling                                : Appended to previous track

Used output format              : User Defined Encoder
Selected bitrate                : 320 kBit/s
Quality                         : High
Add ID3 tag                     : No
Command line compressor         : C:\Program Files\FLAC\flac.exe
Additional command line options : -8 -V -T "ARTIST=%a" -T "TITLE=%t" -T "ALBUM=%g" -T "DATE=%y" -T "TRACKNUMBER=%n" -T "GENRE=%m" -T "COMMENT=EAC FLAC -8" %s

TOC of the extracted CD

     Track |   Start  |  Length  | Start sector | End sector
    ---------------------------------------------------------
        1  |  0:00.01 |  4:23.27 |         1    |    19752   
        2  |  4:23.28 |  4:20.67 |     19753    |    39319   
        3  |  8:44.20 |  3:55.04 |     39320    |    56948   
        4  | 12:39.24 |  3:42.68 |     56949    |    73666   
        5  | 16:22.17 |  5:11.50 |     73667    |    97041   
        6  | 21:33.67 |  4:16.40 |     97042    |   116281   
        7  | 25:50.32 |  4:55.29 |    116282    |   138435   
        8  | 30:45.61 |  4:56.36 |    138436    |   160671   
        9  | 35:42.22 |  4:26.62 |    160672    |   180683   
       10  | 40:09.09 |  3:14.48 |    180684    |   195281   
       11  | 43:23.57 |  3:07.34 |    195282    |   209340   
       12  | 46:31.16 |  3:33.56 |    209341    |   225371   
       13  | 50:04.72 |  5:30.13 |    225372    |   250134   
       14  | 55:35.10 |  5:06.34 |    250135    |   273118   

Track  1

     Filename C:\FLAC Rips\Ken Laszlo - Album 2000 (CD1) (2000) [FLAC]\01 - Hey Hey Guy 2000.wav

     Pre-gap length  0:00:02.01

     Peak level 100.0 %
     Track quality 100.0 %
     Test CRC 7462AC9C
     Copy CRC 7462AC9C
     Track not present in AccurateRip database
     Copy OK

Track  2

     Filename C:\FLAC Rips\Ken Laszlo - Album 2000 (CD1) (2000) [FLAC]\02 - Tonight 2000.wav

     Peak level 100.0 %
     Track quality 100.0 %
     Test CRC F8A5F0F7
     Copy CRC F8A5F0F7
     Track not present in AccurateRip database
     Copy OK

Track  3

     Filename C:\FLAC Rips\Ken Laszlo - Album 2000 (CD1) (2000) [FLAC]\03 - You're A Woman.wav

     Peak level 100.0 %
     Track quality 100.0 %
     Test CRC 4DBF56FA
     Copy CRC 4DBF56FA
     Track not present in AccurateRip database
     Copy OK

Track  4

     Filename C:\FLAC Rips\Ken Laszlo - Album 2000 (CD1) (2000) [FLAC]\04 - Love Things.wav

     Peak level 93.4 %
     Track quality 100.0 %
     Test CRC 270C378A
     Copy CRC 270C378A
     Track not present in AccurateRip database
     Copy OK

Track  5

     Filename C:\FLAC Rips\Ken Laszlo - Album 2000 (CD1) (2000) [FLAC]\05 - E-mail Box.wav

     Peak level 94.2 %
     Track quality 100.0 %
     Test CRC E656AA89
     Copy CRC E656AA89
     Track not present in AccurateRip database
     Copy OK

Track  6

     Filename C:\FLAC Rips\Ken Laszlo - Album 2000 (CD1) (2000) [FLAC]\06 - A Wonderful Love.wav

     Peak level 100.0 %
     Track quality 100.0 %
     Test CRC F92F4AA3
     Copy CRC F92F4AA3
     Track not present in AccurateRip database
     Copy OK

Track  7

     Filename C:\FLAC Rips\Ken Laszlo - Album 2000 (CD1) (2000) [FLAC]\07 - Summer Nights.wav

     Peak level 95.0 %
     Track quality 100.0 %
     Test CRC E526F90E
     Copy CRC E526F90E
     Track not present in AccurateRip database
     Copy OK

Track  8

     Filename C:\FLAC Rips\Ken Laszlo - Album 2000 (CD1) (2000) [FLAC]\08 - What A Lonely Night.wav

     Peak level 98.8 %
     Track quality 100.0 %
     Test CRC F4613644
     Copy CRC F4613644
     Track not present in AccurateRip database
     Copy OK

Track  9

     Filename C:\FLAC Rips\Ken Laszlo - Album 2000 (CD1) (2000) [FLAC]\09 - When I Fall In Love.wav

     Peak level 93.1 %
     Track quality 100.0 %
     Test CRC FFE58DFB
     Copy CRC FFE58DFB
     Track not present in AccurateRip database
     Copy OK

Track 10

     Filename C:\FLAC Rips\Ken Laszlo - Album 2000 (CD1) (2000) [FLAC]\10 - Video Killed The Radio Star.wav

     Peak level 100.0 %
     Track quality 100.0 %
     Test CRC EBCDF566
     Copy CRC EBCDF566
     Track not present in AccurateRip database
     Copy OK

Track 11

     Filename C:\FLAC Rips\Ken Laszlo - Album 2000 (CD1) (2000) [FLAC]\11 - What's Your Love.wav

     Peak level 100.0 %
     Track quality 100.0 %
     Test CRC 9449CCDF
     Copy CRC 9449CCDF
     Track not present in AccurateRip database
     Copy OK

Track 12

     Filename C:\FLAC Rips\Ken Laszlo - Album 2000 (CD1) (2000) [FLAC]\12 - Whatever Love.wav

     Peak level 99.9 %
     Track quality 100.0 %
     Test CRC 45E5D238
     Copy CRC 45E5D238
     Track not present in AccurateRip database
     Copy OK

Track 13

     Filename C:\FLAC Rips\Ken Laszlo - Album 2000 (CD1) (2000) [FLAC]\13 - Video Killed The Radio Star (Factory Team Remix).wav

     Peak level 99.7 %
     Track quality 100.0 %
     Test CRC 83F372CF
     Copy CRC 83F372CF
     Track not present in AccurateRip database
     Copy OK

Track 14

     Filename C:\FLAC Rips\Ken Laszlo - Album 2000 (CD1) (2000) [FLAC]\14 - Hey Hey Guy 2000 (Long Edit).wav

     Peak level 100.0 %
     Track quality 100.0 %
     Test CRC EA06914E
     Copy CRC EA06914E
     Track not present in AccurateRip database
     Copy OK

None of the tracks are present in the AccurateRip database

No errors occurred

End of status report

Код:

REM GENRE Dance
REM DATE 2000
REM DISCID BF0E390E
REM COMMENT "ExactAudioCopy v0.99pb4"
PERFORMER "Ken Laszlo"
TITLE "Album 2000 (CD1)"
FILE "Ken Laszlo - Album 2000 (CD1) (2000) [FLAC]\01 - Hey Hey Guy 2000.wav" WAVE
  TRACK 01 AUDIO
    TITLE "Hey Hey Guy 2000"
    PERFORMER "Ken Laszlo"
    PREGAP 00:00:01
    INDEX 01 00:00:00
FILE "Ken Laszlo - Album 2000 (CD1) (2000) [FLAC]\02 - Tonight 2000.wav" WAVE
  TRACK 02 AUDIO
    TITLE "Tonight 2000"
    PERFORMER "Ken Laszlo"
    INDEX 01 00:00:00
FILE "Ken Laszlo - Album 2000 (CD1) (2000) [FLAC]\03 - You're A Woman.wav" WAVE
  TRACK 03 AUDIO
    TITLE "You're A Woman"
    PERFORMER "Ken Laszlo"
    INDEX 01 00:00:00
FILE "Ken Laszlo - Album 2000 (CD1) (2000) [FLAC]\04 - Love Things.wav" WAVE
  TRACK 04 AUDIO
    TITLE "Love Things"
    PERFORMER "Ken Laszlo"
    INDEX 01 00:00:00
FILE "Ken Laszlo - Album 2000 (CD1) (2000) [FLAC]\05 - E-mail Box.wav" WAVE
  TRACK 05 AUDIO
    TITLE "E-mail Box"
    PERFORMER "Ken Laszlo"
    INDEX 01 00:00:00
FILE "Ken Laszlo - Album 2000 (CD1) (2000) [FLAC]\06 - A Wonderful Love.wav" WAVE
  TRACK 06 AUDIO
    TITLE "A Wonderful Love"
    PERFORMER "Ken Laszlo"
    INDEX 01 00:00:00
FILE "Ken Laszlo - Album 2000 (CD1) (2000) [FLAC]\07 - Summer Nights.wav" WAVE
  TRACK 07 AUDIO
    TITLE "Summer Nights"
    PERFORMER "Ken Laszlo"
    INDEX 01 00:00:00
FILE "Ken Laszlo - Album 2000 (CD1) (2000) [FLAC]\08 - What A Lonely Night.wav" WAVE
  TRACK 08 AUDIO
    TITLE "What A Lonely Night"
    PERFORMER "Ken Laszlo"
    INDEX 01 00:00:00
FILE "Ken Laszlo - Album 2000 (CD1) (2000) [FLAC]\09 - When I Fall In Love.wav" WAVE
  TRACK 09 AUDIO
    TITLE "When I Fall In Love"
    PERFORMER "Ken Laszlo"
    INDEX 01 00:00:00
FILE "Ken Laszlo - Album 2000 (CD1) (2000) [FLAC]\10 - Video Killed The Radio Star.wav" WAVE
  TRACK 10 AUDIO
    TITLE "Video Killed The Radio Star"
    PERFORMER "Ken Laszlo"
    INDEX 01 00:00:00
FILE "Ken Laszlo - Album 2000 (CD1) (2000) [FLAC]\11 - What's Your Love.wav" WAVE
  TRACK 11 AUDIO
    TITLE "What's Your Love"
    PERFORMER "Ken Laszlo"
    INDEX 01 00:00:00
FILE "Ken Laszlo - Album 2000 (CD1) (2000) [FLAC]\12 - Whatever Love.wav" WAVE
  TRACK 12 AUDIO
    TITLE "Whatever Love"
    PERFORMER "Ken Laszlo"
    INDEX 01 00:00:00
FILE "Ken Laszlo - Album 2000 (CD1) (2000) [FLAC]\13 - Video Killed The Radio Star (Factory Team Remix).wav" WAVE
  TRACK 13 AUDIO
    TITLE "Video Killed The Radio Star (Factory Team Remix)"
    PERFORMER "Ken Laszlo"
    INDEX 01 00:00:00
FILE "Ken Laszlo - Album 2000 (CD1) (2000) [FLAC]\14 - Hey Hey Guy 2000 (Long Edit).wav" WAVE
  TRACK 14 AUDIO
    TITLE "Hey Hey Guy 2000 (Long Edit)"
    PERFORMER "Ken Laszlo"
    INDEX 01 00:00:00
Треклист:
01. Hey Hey Guy
02. Tonight
03. 1.2.3.4.5.6.7.8
04. Don't Cry
05. Glasses Man
06. You're My Heart, You're My Soul
07. Everytime
08. Me And You
09. Mary Ann
10. Baby Call Me
11. Ken Laszlo Megamix

Код:

Exact Audio Copy V0.99 prebeta 4 from 23. January 2008

EAC extraction logfile from 30. March 2008, 14:50

Ken Laszlo / Album 2000 (CD2)

Used drive  : PIONEER DVD-RW  DVR-107D   Adapter: 1  ID: 1

Read mode               : Secure
Utilize accurate stream : Yes
Defeat audio cache      : Yes
Make use of C2 pointers : No

Read offset correction                      : 48
Overread into Lead-In and Lead-Out          : No
Fill up missing offset samples with silence : Yes
Delete leading and trailing silent blocks   : No
Null samples used in CRC calculations       : Yes
Used interface                              : Native Win32 interface for Win NT & 2000
Gap handling                                : Appended to previous track

Used output format              : User Defined Encoder
Selected bitrate                : 320 kBit/s
Quality                         : High
Add ID3 tag                     : No
Command line compressor         : C:\Program Files\FLAC\flac.exe
Additional command line options : -8 -V -T "ARTIST=%a" -T "TITLE=%t" -T "ALBUM=%g" -T "DATE=%y" -T "TRACKNUMBER=%n" -T "GENRE=%m" -T "COMMENT=EAC FLAC -8" %s

TOC of the extracted CD

     Track |   Start  |  Length  | Start sector | End sector
    ---------------------------------------------------------
        1  |  0:00.01 |  7:44.18 |         1    |    34818   
        2  |  7:44.19 |  5:51.15 |     34819    |    61158   
        3  | 13:35.34 |  5:24.32 |     61159    |    85490   
        4  | 18:59.66 |  5:39.61 |     85491    |   110976   
        5  | 24:39.52 |  4:37.56 |    110977    |   131807   
        6  | 29:17.33 |  3:55.18 |    131808    |   149450   
        7  | 33:12.51 |  5:32.24 |    149451    |   174374   
        8  | 38:45.00 |  4:12.23 |    174375    |   193297   
        9  | 42:57.23 |  5:47.63 |    193298    |   219385   
       10  | 48:45.11 |  3:25.21 |    219386    |   234781   
       11  | 52:10.32 |  7:23.17 |    234782    |   268023   

Track  1

     Filename C:\FLAC Rips\Ken Laszlo - Album 2000 (CD2) (2000) [FLAC]\01 - Hey Hey Guy.wav

     Pre-gap length  0:00:02.01

     Peak level 97.5 %
     Track quality 99.9 %
     Test CRC 798EF934
     Copy CRC 798EF934
     Track not present in AccurateRip database
     Copy OK

Track  2

     Filename C:\FLAC Rips\Ken Laszlo - Album 2000 (CD2) (2000) [FLAC]\02 - Tonight.wav

     Peak level 97.4 %
     Track quality 100.0 %
     Test CRC ABC1D370
     Copy CRC ABC1D370
     Track not present in AccurateRip database
     Copy OK

Track  3

     Filename C:\FLAC Rips\Ken Laszlo - Album 2000 (CD2) (2000) [FLAC]\03 - 1.2.3.4.5.6.7.8.wav

     Peak level 97.1 %
     Track quality 99.9 %
     Test CRC 34F76720
     Copy CRC 34F76720
     Track not present in AccurateRip database
     Copy OK

Track  4

     Filename C:\FLAC Rips\Ken Laszlo - Album 2000 (CD2) (2000) [FLAC]\04 - Don't Cry.wav

     Peak level 96.9 %
     Track quality 100.0 %
     Test CRC 2683625F
     Copy CRC 2683625F
     Track not present in AccurateRip database
     Copy OK

Track  5

     Filename C:\FLAC Rips\Ken Laszlo - Album 2000 (CD2) (2000) [FLAC]\05 - Glasses Man.wav

     Peak level 100.0 %
     Track quality 100.0 %
     Test CRC 667A0E3E
     Copy CRC 667A0E3E
     Track not present in AccurateRip database
     Copy OK

Track  6

     Filename C:\FLAC Rips\Ken Laszlo - Album 2000 (CD2) (2000) [FLAC]\06 - You're My Heart, You're My Soul.wav

     Peak level 99.7 %
     Track quality 100.0 %
     Test CRC 3F727426
     Copy CRC 3F727426
     Track not present in AccurateRip database
     Copy OK

Track  7

     Filename C:\FLAC Rips\Ken Laszlo - Album 2000 (CD2) (2000) [FLAC]\07 - Everytime.wav

     Peak level 99.7 %
     Track quality 100.0 %
     Test CRC 962D0302
     Copy CRC 962D0302
     Track not present in AccurateRip database
     Copy OK

Track  8

     Filename C:\FLAC Rips\Ken Laszlo - Album 2000 (CD2) (2000) [FLAC]\08 - Me And You.wav

     Peak level 99.7 %
     Track quality 100.0 %
     Test CRC ED9E21BA
     Copy CRC ED9E21BA
     Track not present in AccurateRip database
     Copy OK

Track  9

     Filename C:\FLAC Rips\Ken Laszlo - Album 2000 (CD2) (2000) [FLAC]\09 - Mary Ann.wav

     Peak level 99.7 %
     Track quality 100.0 %
     Test CRC 6FF3EFFF
     Copy CRC 6FF3EFFF
     Track not present in AccurateRip database
     Copy OK

Track 10

     Filename C:\FLAC Rips\Ken Laszlo - Album 2000 (CD2) (2000) [FLAC]\10 - Baby Call Me.wav

     Peak level 99.7 %
     Track quality 100.0 %
     Test CRC 563E2AFA
     Copy CRC 563E2AFA
     Track not present in AccurateRip database
     Copy OK

Track 11

     Filename C:\FLAC Rips\Ken Laszlo - Album 2000 (CD2) (2000) [FLAC]\11 - Ken Laszlo Megamix.wav

     Peak level 100.0 %
     Track quality 100.0 %
     Test CRC 13ACF068
     Copy CRC 13ACF068
     Track not present in AccurateRip database
     Copy OK

None of the tracks are present in the AccurateRip database

No errors occurred

End of status report

Код:

REM GENRE Dance
REM DATE 2000
REM DISCID A60DF50B
REM COMMENT "ExactAudioCopy v0.99pb4"
CATALOG 0000000000000
PERFORMER "Ken Laszlo"
TITLE "Album 2000 (CD2)"
FILE "Ken Laszlo - Album 2000 (CD2) (2000) [FLAC]\01 - Hey Hey Guy.wav" WAVE
  TRACK 01 AUDIO
    TITLE "Hey Hey Guy"
    PERFORMER "Ken Laszlo"
    PREGAP 00:00:01
    INDEX 01 00:00:00
FILE "Ken Laszlo - Album 2000 (CD2) (2000) [FLAC]\02 - Tonight.wav" WAVE
  TRACK 02 AUDIO
    TITLE "Tonight"
    PERFORMER "Ken Laszlo"
    INDEX 01 00:00:00
FILE "Ken Laszlo - Album 2000 (CD2) (2000) [FLAC]\03 - 1.2.3.4.5.6.7.8.wav" WAVE
  TRACK 03 AUDIO
    TITLE "1.2.3.4.5.6.7.8"
    PERFORMER "Ken Laszlo"
    INDEX 01 00:00:00
FILE "Ken Laszlo - Album 2000 (CD2) (2000) [FLAC]\04 - Don't Cry.wav" WAVE
  TRACK 04 AUDIO
    TITLE "Don't Cry"
    PERFORMER "Ken Laszlo"
    INDEX 01 00:00:00
FILE "Ken Laszlo - Album 2000 (CD2) (2000) [FLAC]\05 - Glasses Man.wav" WAVE
  TRACK 05 AUDIO
    TITLE "Glasses Man"
    PERFORMER "Ken Laszlo"
    INDEX 01 00:00:00
FILE "Ken Laszlo - Album 2000 (CD2) (2000) [FLAC]\06 - You're My Heart, You're My Soul.wav" WAVE
  TRACK 06 AUDIO
    TITLE "You're My Heart, You're My Soul"
    PERFORMER "Ken Laszlo"
    INDEX 01 00:00:00
FILE "Ken Laszlo - Album 2000 (CD2) (2000) [FLAC]\07 - Everytime.wav" WAVE
  TRACK 07 AUDIO
    TITLE "Everytime"
    PERFORMER "Ken Laszlo"
    INDEX 01 00:00:00
FILE "Ken Laszlo - Album 2000 (CD2) (2000) [FLAC]\08 - Me And You.wav" WAVE
  TRACK 08 AUDIO
    TITLE "Me And You"
    PERFORMER "Ken Laszlo"
    INDEX 01 00:00:00
FILE "Ken Laszlo - Album 2000 (CD2) (2000) [FLAC]\09 - Mary Ann.wav" WAVE
  TRACK 09 AUDIO
    TITLE "Mary Ann"
    PERFORMER "Ken Laszlo"
    INDEX 01 00:00:00
FILE "Ken Laszlo - Album 2000 (CD2) (2000) [FLAC]\10 - Baby Call Me.wav" WAVE
  TRACK 10 AUDIO
    TITLE "Baby Call Me"
    PERFORMER "Ken Laszlo"
    INDEX 01 00:00:00
FILE "Ken Laszlo - Album 2000 (CD2) (2000) [FLAC]\11 - Ken Laszlo Megamix.wav" WAVE
  TRACK 11 AUDIO
    TITLE "Ken Laszlo Megamix"
    PERFORMER "Ken Laszlo"
    INDEX 01 00:00:00


Этот торрент недоступен для скачивания без регистрации, однако доступен по публичной magnet-ссылке (источники с публичных трекеров). Перед использованием ссылки прочтите, пожалуйста Пользовательское соглашение, а также как можно дольше оставайтесь на раздаче! Для того, чтобы скачать сам торрент-файл (который видит больше источников), а также для того, чтобы поблагодарить релизера, вам необходимо зарегистрироваться. Если регистрироваться лень - вы можете также попробовать скачать релиз по нашим партнерским ссылкам ниже. Кроме того, зарегистрированным пользователям не показывается всплывающая реклама при скачивании.

[underverse.me].t103718.torrent
Трекер: Зарегистрирован   [ 07.05.2018 08:50 ]  

Статус: проверено (by Бишеп at 07.05.2018 08:51)
Поблагодарили: пока никто не поблагодарил...
Тип торрента: публичный - доступные источники с открытых трекеров: 
Размер: 810 MB (занимает 0,18 DVDR, для записи нужно 1 болванка DVDR/RW)
 
 
Похожие темы
Форум Тема Автор Торрент Отв. Посл. сооб.
Зарубежная Pop Музыка (Italo-Disco) Limelight - Special Love - Re-Tubed (2CD) (2018) [MP3, 320 kbps CBR] 90ytr90
5 | 0

0 | 202

5

05.08.2018 16:03

Сборники Pop, Disco, Dance (Italo-Disco, Europop, Hi NRG, Synth-Pop, Disco) VA - 80's Revolution - Italo Disco-5 [2CD] (2013) [MP3, 320 kbps CBR] SASHOK
1 | 0

0 | 1784

18

31.08.2013 04:33

Сборники Pop, Disco, Dance (Italo-Disco, Europop, Hi NRG, Synth-Pop, Disco) VA - 80's Revolution - Disco Fox-5 [2CD] (2013) [MP3, 320 kbps CBR] terra07
0 | 0

0 | 1754

22

31.08.2013 04:37

Сборники Pop, Disco, Dance (Italo-Disco) VA - Italo Super Hits Vol.1 (2013) [MP3, 320 kbps CBR] 90ytr90
5 | 0

0 | 175

9

03.08.2018 18:26

Сборники Pop, Disco, Dance (Italo-Disco) VA - Italo Super Hits Vol.2 (2013) [MP3, 320 kbps CBR] 90ytr90
6 | 0

0 | 195

7

03.08.2018 18:29

Сборники Pop, Disco, Dance (Italo-Disco) VA - Italo Super Hits Vol.3 (2013) [MP3, 320 kbps CBR] 90ytr90
1 | 0

0 | 208

7

03.08.2018 18:30

Зарубежная Поп Музыка (Lossless) (Italo-Disco) Grant Miller - Best Of - The Maxi - Singles Hit Collection (2010) [FLAC (Tracks+.CUE), Lossless] Бишеп
1 | 1

1 | 2465

14

10.09.2012 12:39

Зарубежная Поп Музыка (Lossless) (Italo-Disco) Mozzart - Money (The Maxi-Singles Collection) (2007) [FLAC (Tracks+.CUE), Lossless] Бишеп
1 | 0

0 | 2227

6

16.04.2012 11:43

Зарубежная Поп Музыка (Lossless) (Italo-Disco, Euro House, Synth-pop) Mike Mareen - Essential (2CD) (2010) [FLAC (Tracks+.CUE), Lossless] Бишеп
1 | 0

0 | 1643

9

24.06.2012 16:07

Зарубежная Поп Музыка (Lossless) (Italo-Disco) Baby's Gang - Happy Song & Challenger (Maxi-Single) (1995) [FLAC (Image+.CUE), Lossless] Бишеп
1 | 0

0 | 1760

10

04.07.2012 17:08


Яндекс.Метрика powered by Sphinx


В Н И М А Н И Е
Сайт не распространяет и не хранит электронные версии произведений, а лишь бесплатно и без коммерческой выгоды (не требуя взамен платы,
SMS и т.д.) предоставляет доступ к создаваемому пользователями каталогу ссылок на торрент-файлы, которые содержат только списки хеш-сумм.
Убедительная просьба с жалобами обращаться напрямую к пользователю, разместившему торрент файл.

Вверх