Loading...
Error

Славные пташки / PLOEY. You Never Fly Alone (Алекс Гарленд) [2018 г., мультфильм, приключения, семейный, WEB-DL 1080p] Dub (Line)

Статистика раздачи
Размер:  3,27 GB   |    Зарегистрирован:  5 месяцев   |    Скачан:  21 раз

Полного источника не было: 8 дней

Сидов:  0  |  0 KB/s  ]   Личеров:  0  |  0 KB/s  ]

* - сиды/пиры с внешних источников

   
 
Автор Сообщение

makkol Пол:Муж

17-Май-2018 21:57

Славные пташки / PLOEY. You Never Fly Alone
«Двигай перьями»


Год выпуска: 2018
Жанр: мультфильм, приключения, семейный
Производство: Исландия , Бельгия [GunHil, Cyborn]
Режиссер: Алекс Гарленд
Роли озвучивали: Джэми Орам, Харриет Перринг, Иэн Стюарт Робертсон, Ричард Уиллс-Коттон, Торунн Эрна Клаузен, Томас Арнольд, Кайзер Ахтар, Дебби Чейзен, Донья Кролл, Грэхэм Йорк
Сюжет фильма:
Приключения маленького птенца Рыжика и куропатки-отшельника Гайрона. Судьба сводит их вместе, когда Рыжик, отстав от стаи, не смог улететь на юг. Рыжик уговаривает чудаковатого и вечно брюзжащего Гайрона показать ему дорогу в Райскую долину — тайное место в горах, где птицы могут переждать суровую зиму. Путь туда таит немало опасностей. Постепенно неунывающему Рыжику удается растопить сердце старого отшельника. Вместе эта парочка становится друг для друга настоящей семьей, которой по силам свернуть горы.

  • Мировая премьера: 2 февраля 2018
  • Российская премьера: 12 апреля 2018


Качество видео: WEB-DL 1080p

Продолжительность: 01:23:23
Формат: MKV
Видео: MPEG-4 AVC, 1920x804 (2.40:1), 23.976 fps, 5231 kbps
Аудио: русский, дублированный (официальный звук), AC3 5.1, 48 kHz, 384 kbps

Код:

Общее
Уникальный идентификатор : 199809822292430928622033912057965877129 (0x9651F8D4920C9EB4A8FE136E8FA09789)
Полное имя : F:\Slavnye.ptshky.2017.D.WEB-DL.1O8Op.mkv
Формат : Matroska
Версия формата : Version 2
Размер файла : 3,27 Гбайт
Продолжительность : 1 ч. 23 м.
Режим общего битрейта : Переменный
Общий поток : 5617 Кбит/сек
Дата кодирования : UTC 2018-05-17 12:27:29
Программа кодирования : mkvmerge v8.3.0 ('Over the Horizon') 64bit
Библиотека кодирования : libebml v1.3.1 + libmatroska v1.4.2

Видео
Идентификатор : 1
Формат : AVC
Формат/Информация : Advanced Video Codec
Профиль формата : High@L4.1
Параметр CABAC формата : Да
Параметр RefFrames формата : 4 кадра
Идентификатор кодека : V_MPEG4/ISO/AVC
Продолжительность : 1 ч. 23 м.
Вид битрейта : Переменный
Битрейт : 5231 Кбит/сек
Максимальный битрейт : 5900 Кбит/сек
Ширина : 1920 пикселей
Высота : 804 пикселя
Соотношение сторон : 2,40:1
Режим частоты кадров : Постоянный
Частота кадров : 23,976 (24000/1001) кадра/сек
Стандарт вещания : Component
Цветовое пространство : YUV
Субдискретизация насыщенности : 4:2:0
Битовая глубина : 8 бит
Тип развёртки : Прогрессивная
Бит/(Пиксели*Кадры) : 0.138
Размер потока : 2,98 Гбайт (91%)
Default : Да
Forced : Нет
Цветовой диапазон : Limited
Основные цвета : BT.709
Характеристики трансфера : BT.709
Коэффициенты матрицы : BT.709

Аудио
Идентификатор : 2
Формат : AC-3
Формат/Информация : Audio Coding 3
Расширение режима : CM (complete main)
Параметр Endianness формата : Big
Идентификатор кодека : A_AC3
Продолжительность : 1 ч. 23 м.
Вид битрейта : Постоянный
Битрейт : 384 Кбит/сек
Каналы : 6 каналов
Расположение каналов : Front: L C R, Side: L R, LFE
Частота : 48,0 КГц
Частота кадров : 31,250 кадров/сек (1536 spf)
Метод сжатия : С потерями
Размер потока : 229 Мбайт (7%)
Default : Да
Forced : Нет


picpicpic
Для увеличения картинки щелкните мышкой по превью

Этот торрент недоступен для скачивания без регистрации, однако доступен по публичной magnet-ссылке (источники с публичных трекеров). Перед использованием ссылки прочтите, пожалуйста Пользовательское соглашение, а также как можно дольше оставайтесь на раздаче! Для того, чтобы скачать сам торрент-файл (который видит больше источников), а также для того, чтобы поблагодарить релизера, вам необходимо зарегистрироваться. Если регистрироваться лень - вы можете также попробовать скачать релиз по нашим партнерским ссылкам ниже. Кроме того, зарегистрированным пользователям не показывается всплывающая реклама при скачивании.

[underverse.me].t104318.torrent
Трекер: Зарегистрирован   [ 17.05.2018 21:57 ]  

Статус: T временная (by makkol at 17.05.2018 21:58)
Поблагодарили: 1 человек
Тип торрента: публичный - доступные источники с открытых трекеров: 
Размер: 3,27 GB (занимает 0,75 DVDR, для записи нужно 1 болванка DVDR/RW)
 
 
Похожие темы
Форум Тема Автор Торрент Отв. Посл. сооб.
T Зарубежные мультфильмы Славные пташки / PLOEY. You Never Fly Alone (Алекс Гарленд) [2018 г., мультфильм, приключения, семейный, WEB-DLRip] Dub (Line) makkol
31 | 0

0 | 480

20

17.05.2018 21:49

T Зарубежные мультфильмы Славные пташки / PLOEY. You Never Fly Alone (Алекс Гарленд) [2018 г., мультфильм, приключения, семейный, WEB-DLRip] Dub (iTunes) makkol
196 | 1

0 | 478

20

05.06.2018 21:25

T Мультфильмы [HDDVDRip / BDRip / WEB-DL / HDTV 1080/720р] Славные пташки / PLOEY. You Never Fly Alone (Алекс Гарленд) [2018 г., мультфильм, приключения, семейный, WEB-DL 1080p] Dub (iTunes) makkol
340 | 1

0 | 583

12

05.06.2018 21:32


Яндекс.Метрика powered by Sphinx


В Н И М А Н И Е
Сайт не распространяет и не хранит электронные версии произведений, а лишь бесплатно и без коммерческой выгоды (не требуя взамен платы,
SMS и т.д.) предоставляет доступ к создаваемому пользователями каталогу ссылок на торрент-файлы, которые содержат только списки хеш-сумм.
Убедительная просьба с жалобами обращаться напрямую к пользователю, разместившему торрент файл.

Вверх