Loading...
Error

Дикие предки / Early Man (Ник Парк) [ 2018 г., Мультфильм, семейный, приключения, полнометражный, BDRip 1080p] 2x Dub (Rus, Ukr) + Original (Eng) + Sub (Eng)

Статистика раздачи
Размер:  8,8 GB   |    Зарегистрирован:  5 месяцев 25 дней   |    Скачан:  15 раз
Сидов:  1  |  0 KB/s  ]   Личеров:  0  |  0 KB/s  ]

* - сиды/пиры с внешних источников

   
 
Автор Сообщение

90ytr90 

21-Май-2018 21:54

Дикие предки / Early Man
Информация о фильме
Название: Дикие предки
Оригинальное название: Early Man
Год выхода: 2018
Жанр: Мультфильм, семейный, приключения, полнометражный
Режиссёр: Ник Парк

В ролях: Том Хиддлстон, Эдди Редмэйн, Мэйси Уильямс, Тимоти Сполл, Ричард Айоади, Марк Уильямс, Мириам Марголис, Ник Парк, Роб Брайдон, Кайван Новак
imdb
О фильме: Каменный век и даже более поздние цивилизации — всё равно дикие предки, но как же они были похожи на нас. У них тоже было слишком много родственников, а мужчины боролись за любимую женщину. Они тоже обожали драгоценности, играли в кожаный мяч, и каждый стремился стать первым…
Страна: Великобритания, Франция
Студия: Aardman Animations
Продолжительность: 01:28:40
Перевод: Дублированный | iTunes

Качество: BDRip 1080p
Видео: MPEG-4 AVC, 1920x1040, 13.0 Mbit/s, 23.976 fps
Звук:
Аудио #01: 48 kHz, AC3, 5.1, 384 Kbps | iTunes | RUS |
Аудио #02: 48 kHz, AC3, 5.1, 384 Kbps | iTunes | UKR |
Аудио #03: 48 kHz, AC3, 5.1, 448 Kbps | Оригинал | ENG |
Субтитры: Английские

General
Unique ID : 236906649880757762316591551329915568528 (0xB23A8FA471EADDD99F95289302B70190)
Complete name : C:Video111Early.Man.2018.BDRip.1080p.ExKinoRay.mkv
Format : Matroska
Format version : Version 4 / Version 2
File size : 8.80 GiB
Duration : 1 h 28 min
Overall bit rate mode : Variable
Overall bit rate : 14.2 Mb/s
Movie name : Early Man 2018 fron ExKinoRay
Encoded date : UTC 2018-05-21 20:27:24
Writing application : mkvmerge v7.3.0 ('Nouages') 64bit built on Oct 22 2014 18:53:34
Writing library : libebml v1.3.0 + libmatroska v1.4.1
Video
ID : 1
Format : AVC
Format/Info : Advanced Video Codec
Format profile : High@L4.1
Format settings : CABAC / 3 Ref Frames
Format settings, CABAC : Yes
Format settings, ReFrames : 3 frames
Codec ID : V_MPEG4/ISO/AVC
Duration : 1 h 28 min
Bit rate mode : Variable
Bit rate : 13.0 Mb/s
Maximum bit rate : 50.0 Mb/s
Width : 1 920 pixels
Height : 1 040 pixels
Display aspect ratio : 1.85:1
Frame rate mode : Constant
Frame rate : 23.976 (24000/1001) FPS
Color space : YUV
Chroma subsampling : 4:2:0
Bit depth : 8 bits
Scan type : Progressive
Bits/(Pixel*Frame) : 0.272
Stream size : 8.04 GiB (91%)
Writing library : x264 core 142 r2431+42 c69a006 tMod [8-bit@all X86_64]
Encoding settings : cabac=1 / ref=4 / deblock=1:-3:-3 / analyse=0x3:0x133 / me=umh / subme=11 / psy=1 / fade_compensate=0.00 / psy_rd=1.04:1.05 / mixed_ref=1 / me_range=48 / chroma_me=1 / trellis=2 / 8x8dct=1 / cqm=0 / deadzone=21,11 / fast_pskip=0 / chroma_qp_offset=-4 / threads=16 / lookahead_threads=2 / sliced_threads=0 / nr=0 / decimate=0 / interlaced=0 / bluray_compat=0 / constrained_intra=0 / fgo=0 / bframes=8 / b_pyramid=1 / b_adapt=2 / b_bias=0 / direct=3 / weightb=1 / open_gop=0 / weightp=2 / keyint=240 / keyint_min=23 / scenecut=40 / intra_refresh=0 / rc_lookahead=150 / rc=2pass / mbtree=0 / bitrate=13000 / ratetol=1.0 / qcomp=0.70 / qpmin=0:0:0 / qpmax=69:69:69 / qpstep=4 / cplxblur=20.0 / qblur=0.5 / vbv_maxrate=50000 / vbv_bufsize=62500 / nal_hrd=vbr / filler=0 / ip_ratio=1.30 / pb_ratio=1.20 / aq=2:0.80 / aq-sensitivity=10.00 / aq-factor=1.00:1.00:1.00 / aq2=0 / aq3=0
Language : English
Default : Yes
Forced : No
Color range : Limited
Color primaries : BT.709
Transfer characteristics : BT.709
Matrix coefficients : BT.709
Audio #1
ID : 2
Format : AC-3
Format/Info : Audio Coding 3
Codec ID : A_AC3
Duration : 1 h 28 min
Bit rate mode : Constant
Bit rate : 384 kb/s
Channel(s) : 6 channels
Channel positions : Front: L C R, Side: L R, LFE
Sampling rate : 48.0 kHz
Frame rate : 31.250 FPS (1536 SPF)
Bit depth : 16 bits
Compression mode : Lossy
Stream size : 244 MiB (3%)
Title : iTunes
Language : Russian
Service kind : Complete Main
Default : Yes
Forced : Yes
Audio #2
ID : 3
Format : AC-3
Format/Info : Audio Coding 3
Codec ID : A_AC3
Duration : 1 h 28 min
Bit rate mode : Constant
Bit rate : 384 kb/s
Channel(s) : 6 channels
Channel positions : Front: L C R, Side: L R, LFE
Sampling rate : 48.0 kHz
Frame rate : 31.250 FPS (1536 SPF)
Bit depth : 16 bits
Compression mode : Lossy
Stream size : 244 MiB (3%)
Title : iTunes
Language : Ukrainian
Service kind : Complete Main
Default : No
Forced : No
Audio #3
ID : 4
Format : AC-3
Format/Info : Audio Coding 3
Codec ID : A_AC3
Duration : 1 h 28 min
Bit rate mode : Constant
Bit rate : 448 kb/s
Channel(s) : 6 channels
Channel positions : Front: L C R, Side: L R, LFE
Sampling rate : 48.0 kHz
Frame rate : 31.250 FPS (1536 SPF)
Bit depth : 16 bits
Compression mode : Lossy
Stream size : 284 MiB (3%)
Title : Original
Language : English
Service kind : Complete Main
Default : No
Forced : No
Text
ID : 5
Format : UTF-8
Codec ID : S_TEXT/UTF8
Codec ID/Info : UTF-8 Plain Text
Duration : 1 h 25 min
Bit rate : 62 b/s
Count of elements : 1554
Stream size : 39.5 KiB (0%)
Language : English
Default : No
Forced : No
Menu
00:00:00.000 : en:00:00:00.000
00:06:07.701 : en:00:06:07.701
00:09:12.635 : en:00:09:12.635
00:16:28.112 : en:00:16:28.112
00:20:00.699 : en:00:20:00.699
00:25:48.255 : en:00:25:48.255
00:30:27.659 : en:00:30:27.659
00:34:12.092 : en:00:34:12.092
00:40:13.995 : en:00:40:13.995
00:45:28.142 : en:00:45:28.142
00:50:12.301 : en:00:50:12.301
00:57:18.643 : en:00:57:18.643
01:00:41.137 : en:01:00:41.137
01:04:59.187 : en:01:04:59.187
01:11:13.060 : en:01:11:13.060
01:16:59.823 : en:01:16:59.823
Релиз от: Автор релиза: Rip by СелезеньS

Этот торрент недоступен для скачивания без регистрации, однако доступен по публичной magnet-ссылке (источники с публичных трекеров). Перед использованием ссылки прочтите, пожалуйста Пользовательское соглашение, а также как можно дольше оставайтесь на раздаче! Для того, чтобы скачать сам торрент-файл (который видит больше источников), а также для того, чтобы поблагодарить релизера, вам необходимо зарегистрироваться. Если регистрироваться лень - вы можете также попробовать скачать релиз по нашим партнерским ссылкам ниже. Кроме того, зарегистрированным пользователям не показывается всплывающая реклама при скачивании.

[underverse.me].t104730.torrent
Трекер: Зарегистрирован   [ 21.05.2018 21:54 ]  

Статус: © запрещена на территории РФ (by Паукан at 09.06.2018 09:50)
Поблагодарили: 1 человек
Тип торрента: публичный - доступные источники с открытых трекеров: 
Размер: 8,8 GB (занимает 2,01 DVDR, для записи нужно 3 болванки DVDR/RW)
 
 
Похожие темы
Форум Тема Автор Торрент Отв. Посл. сооб.
© Зарубежные мультфильмы Дикие предки / Early Man (Ник Парк) [2018 г., мультфильм, WEB-DLRip] Dub (Line) makkol
13 | 3
1,37 GB

0 | 1022

19

19.04.2018 13:02

© Зарубежные мультфильмы Дикие предки / Early Man (Ник Парк) [ 2018 г., Мультфильм, семейный, приключения, полнометражный, BDRip] Dub (iTunes) 90ytr90
194 | 2
1,42 GB

0 | 1691

32

21.05.2018 21:51

© Мультфильмы [DVD / HDDVD / BD / Remux] Дикие предки / Early Man (Ник Парк) [ 2018 г., Мультфильм, семейный, приключения, полнометражный, BDRemux 1080p] 2x Dub (Rus, Ukr) + Original (Eng) + Sub (Eng) 90ytr90
14 | 3
24,88 GB

0 | 808

7

22.05.2018 01:56

© Мультфильмы [HDDVDRip / BDRip / WEB-DL / HDTV 1080/720р] Дикие предки / Early Man (Ник Парк) [2018 г., мультфильм, WEB-DL 720p] Dub (Line) makkol
35 | 2
2,96 GB

0 | 1352

37

19.04.2018 13:10

© Мультфильмы [HDDVDRip / BDRip / WEB-DL / HDTV 1080/720р] Дикие предки / Early Man (Ник Парк) [ 2018 г., Мультфильм, семейный, приключения, полнометражный, BDRip 720p] 2x Dub (Rus, Ukr) + Original (Eng) + Sub (Eng) 90ytr90
122 | 3
3,99 GB

0 | 1018

23

22.05.2018 01:54

© Новинки мультфильмов [CAMRip, TS, DVDScr, WP, TC] Дикие предки / Early Man (Ник Парк) [2018 г., мультфильм, TS] MVO (Колобок) makkol
2 | 0
1,37 GB

0 | 1170

13

20.02.2018 21:44

© Новинки мультфильмов [CAMRip, TS, DVDScr, WP, TC] Дикие предки / Early Man (Ник Парк) [2018 г., мультфильм, TS] Dub makkol
1 | 0
1,37 GB

0 | 7424

12

25.03.2018 21:47


Яндекс.Метрика powered by Sphinx


В Н И М А Н И Е
Сайт не распространяет и не хранит электронные версии произведений, а лишь бесплатно и без коммерческой выгоды (не требуя взамен платы,
SMS и т.д.) предоставляет доступ к создаваемому пользователями каталогу ссылок на торрент-файлы, которые содержат только списки хеш-сумм.
Убедительная просьба с жалобами обращаться напрямую к пользователю, разместившему торрент файл.

Вверх