Loading...
Error

Тролли / Trollie / Сезон 1 (Герт Эмбрехтс) [2015 г., фэнтези, семейный, HDTVRip-AVC] MVO + Original

Статистика раздачи
Размер:  2,16 GB   |    Зарегистрирован:  2 месяца 12 дней   |    Скачан:  2 раза

Полного источника не было: 2 часа 41 минута

Сидов:  0  |  0 KB/s  ]   Личеров:  0  |  0 KB/s  ]

* - сиды/пиры с внешних источников

   
 
Автор Сообщение

makkol Пол:Муж

02-Июн-2018 10:44

Тролли / Trollie


Год выпуска: 2015
Жанр: фэнтези, семейный
Производство: Нидерланды , Бельгия [Ciné Cri De Coeur, Johan Nijenhuis & Co, Mollywood]
Режиссер: Герт Эмбрехтс
В ролях: Кес Бот, Джуна де Леу, Ричард де Руйтер, Тьеббо Герритсма, Таня Джесc, Йелка ван Хаутен, Лео Виллемс, Ольга Зёдерхук, Кун Де Граве, Стефаан Деган
Сюжет фильма:
Макс – младший ребёнок в семье. У него нет друзей, и даже с родной сестрой он не очень ладит. Зато мальчик обожает читать. Самая его любимая книга – про троллей. В глубине души он уверен, что тролли существуют. И однажды ему приходится в этом убедиться…

  • Мировая премьера: 17 октября 2015


Качество видео: HDTVRip-AVC

Продолжительность: 01:54:04 + 01:49:15
Формат: MKV
Видео: MPEG-4 AVC, 1024x576 (16:9), 25.000 fps, ~1000 kbps
Аудио #1: русский, профессиональный многоголосый закадровый (телеканал "Рыжий"), AC3 2.0, 48 kHz, 192 kbps
Аудио #2: голландский, оригинал, AC3 2.0, 48 kHz, 192 kbps
Сериал состоит из десяти серий по ~22 мин. каждая. В данной раздаче они смонтированы в двухсерийный фильм.

Код:

Общее
Уникальный идентификатор                 : 177649942510426012719302525006389151262 (0x85A62267613857194704C7E320DB861E)
Полное имя                               : Trollie (2015) - 01.mkv
Формат                                   : Matroska
Версия формата                           : Version 2
Размер файла                             : 1,11 Гбайт
Продолжительность                        : 1 ч. 53 м.
Режим общего битрейта                    : Переменный
Общий поток                              : 1404 Кбит/сек
Программа кодирования                    : Lavf54.63.104
Библиотека кодирования                   : Lavf54.63.104

Видео
Идентификатор                            : 1
Формат                                   : AVC
Формат/Информация                        : Advanced Video Codec
Профиль формата                          : Baseline@L4.1
Параметр CABAC формата                   : Нет
Параметр ReFrames формата                : 2 кадра
Параметр GOP формата                     : M=1, N=25
Идентификатор кодека                     : V_MPEG4/ISO/AVC
Продолжительность                        : 1 ч. 53 м.
Вид битрейта                             : Переменный
Битрейт                                  : 992 Кбит/сек
Максимальный битрейт                     : 40,0 Мбит/сек
Ширина                                   : 1024 пикселя
Высота                                   : 576 пикселей
Соотношение сторон                       : 16:9
Режим частоты кадров                     : Постоянный
Частота кадров                           : 25,000 кадров/сек
Цветовое пространство                    : YUV
Субдискретизация насыщенности            : 4:2:0
Битовая глубина                          : 8 бит
Тип развёртки                            : Прогрессивная
Бит/(Пиксели*Кадры)                      : 0.067
Размер потока                            : 803 Мбайт (71%)
Default                                  : Нет
Forced                                   : Нет

Аудио #1
Идентификатор                            : 2
Формат                                   : AC-3
Формат/Информация                        : Audio Coding 3
Расширение режима                        : CM (complete main)
Параметр Endianness формата              : Big
Идентификатор кодека                     : A_AC3
Продолжительность                        : 1 ч. 53 м.
Вид битрейта                             : Постоянный
Битрейт                                  : 192 Кбит/сек
Каналы                                   : 2 канала
Расположение каналов                     : Front: L R
Частота                                  : 48,0 КГц
Метод сжатия                             : С потерями
Размер потока                            : 155 Мбайт (14%)
Язык                                     : Russian
Default                                  : Да
Forced                                   : Нет

Аудио #2
Идентификатор                            : 3
Формат                                   : AC-3
Формат/Информация                        : Audio Coding 3
Расширение режима                        : CM (complete main)
Параметр Endianness формата              : Big
Идентификатор кодека                     : A_AC3
Продолжительность                        : 1 ч. 53 м.
Вид битрейта                             : Постоянный
Битрейт                                  : 192 Кбит/сек
Каналы                                   : 2 канала
Расположение каналов                     : Front: L R
Частота                                  : 48,0 КГц
Метод сжатия                             : С потерями
Размер потока                            : 155 Мбайт (14%)
Язык                                     : Dutch
Default                                  : Нет
Forced                                   : Нет
picpicpicpicpic
Для увеличения картинки щелкните мышкой по превью

Этот торрент недоступен для скачивания без регистрации, однако доступен по публичной magnet-ссылке (источники с публичных трекеров). Перед использованием ссылки прочтите, пожалуйста Пользовательское соглашение, а также как можно дольше оставайтесь на раздаче! Для того, чтобы скачать сам торрент-файл (который видит больше источников), а также для того, чтобы поблагодарить релизера, вам необходимо зарегистрироваться. Если регистрироваться лень - вы можете также попробовать скачать релиз по нашим партнерским ссылкам ниже. Кроме того, зарегистрированным пользователям не показывается всплывающая реклама при скачивании.

[underverse.me].t105567.torrent
Трекер: Зарегистрирован   [ 02.06.2018 10:44 ]  

Статус: проверено (by makkol at 02.06.2018 10:45)
Поблагодарили: пока никто не поблагодарил...
Тип торрента: публичный - доступные источники с открытых трекеров: 
Размер: 2,16 GB (занимает 0,49 DVDR, для записи нужно 1 болванка DVDR/RW)
 
 
Похожие темы
Форум Тема Автор Торрент Отв. Посл. сооб.
T Зарубежные мультфильмы Тролли / Trolls (Майк Митчелл, Уолт Дорн) [2016 г., мультфильм, фэнтези, комедия, приключения, семейный, WEB-DLRip] Dub (iTunes) makkol
2 | 0

0 | 855

31

22.12.2016 21:12

T Зарубежные мультфильмы Тролли / Trolls (Уолт Дорн / Walt Dohrn, Майк Митчелл / Mike Mitchell) [2016 г., мультфильм, мюзикл, фэнтези, комедия, приключения, семейный, BDRip] Dub (iTunes) 90ytr90
207 | 0

0 | 1168

47

28.01.2017 17:53

T Мультфильмы [HDDVDRip / BDRip / WEB-DL / HDTV 1080/720р] Тролли / Trolls (Майк Митчелл, Уолт Дорн) [2016 г., мультфильм, фэнтези, комедия, приключения, семейный, WEB-DL 1080p] Dub (iTunes) + Original + Sub makkol
2 | 0

0 | 975

47

22.12.2016 21:29

T Мультфильмы [HDDVDRip / BDRip / WEB-DL / HDTV 1080/720р] Тролли / Trolls (Майк Митчелл, Уолт Дорн) [2016 г., мультфильм, фэнтези, комедия, приключения, семейный, WEB-DL 720p] Dub (iTunes) + Original + Sub makkol
34 | 3

0 | 1015

12

22.12.2016 21:21

T Новинки мультфильмов [CAMRip, TS, DVDScr, WP, TC] Тролли / Trolls (Майк Митчелл, Уолт Дорн) [2016 г., мультфильм, фэнтези, комедия, приключения, семейный, TS] Dub makkol
101 | 1

0 | 1294

43

27.10.2016 21:45


Яндекс.Метрика powered by Sphinx


В Н И М А Н И Е
Сайт не распространяет и не хранит электронные версии произведений, а лишь бесплатно и без коммерческой выгоды (не требуя взамен платы,
SMS и т.д.) предоставляет доступ к создаваемому пользователями каталогу ссылок на торрент-файлы, которые содержат только списки хеш-сумм.
Убедительная просьба с жалобами обращаться напрямую к пользователю, разместившему торрент файл.

Вверх