Loading...
Error

Шерлок Гномс / Sherlock Gnomes (Джон Стивенсон) [2018 г., мультфильм, фэнтези, комедия, приключения, семейный, BDRip 720p] Dub (Line)

Статистика раздачи
Размер:  4 GB   |    Зарегистрирован:  5 месяцев 16 дней   |    Скачан:  9 раз

Полного источника не было: 1 месяц 24 дня

Сидов:  0  |  0 KB/s  ]   Личеров:  0  |  0 KB/s  ]

* - сиды/пиры с внешних источников

   
 
Автор Сообщение

makkol Пол:Муж

02-Июн-2018 11:27

Шерлок Гномс / Sherlock Gnomes
«Тотальное загномление»


Год выпуска: 2018
Жанр: мультфильм, фэнтези, комедия, приключения, семейный
Производство: Великобритания , США [Metro-Goldwyn-Mayer (MGM)]
Режиссер: Джон Стивенсон
Роли озвучивали: Эмили Блант, Джонни Депп, Джеймс МакЭвой, Мэри Джей Блайдж, Майкл Кейн, Мэгги Смит, Чиветел Эджиофор, Стивен Мерчант
Сюжет фильма:
Гномео и Джульетту ждет новое захватывающее приключение - теперь в огромном Лондоне. Когда герои с семьями и друзьями переезжают в город, их главная забота - подготовить свой новый сад к весне. Но вскоре они узнают тревожную новость: по всему Лондону таинственным образом исчезают их собратья-гномы! И вот однажды Гномео и Джульетта, вернувшись домой, обнаруживают, что и вся их родня исчезла. В такой ситуации на выручку может прийти только... Шерлок Гномс. Известный детектив становится на защиту обитателей лондонских садов и не без помощи своего верного спутника Ватсона берется раскрыть запутанное дело.

  • Мировая премьера: 15 марта 2018
  • Российская премьера: 15 марта 2018


Качество видео: BDRip 720p

Продолжительность: 01:27:08
Формат: MKV
Видео: MPEG-4 AVC, 1280x536 (2.40:1), 23.976 fps, 6129 kbps
Аудио: русский, дублированный (официальный звук), AC3 2.0, 48 kHz, 448 kbps

Код:

Формат : Matroska
Версия формата : Version 2
Размер файла : 4,00 Гбайт
Продолжительность : 1 ч. 27 м.
Режим общего битрейта : Переменный
Общий поток : 6579 Кбит/сек
Дата кодирования : UTC 2018-06-02 06:37:53
Программа кодирования : mkvmerge v8.3.0 ('Over the Horizon') 64bit
Библиотека кодирования : libebml v1.3.1 + libmatroska v1.4.2

Видео
Идентификатор : 1
Формат : AVC
Формат/Информация : Advanced Video Codec
Профиль формата : High@L4.1
Настройки формата : CABAC / 4 Ref Frames
Параметр CABAC формата : Да
Параметр RefFrames формата : 4 кадра
Идентификатор кодека : V_MPEG4/ISO/AVC
Продолжительность : 1 ч. 27 м.
Вид битрейта : Переменный
Битрейт : 6129 Кбит/сек
Максимальный битрейт : 6900 Кбит/сек
Ширина : 1280 пикселей
Высота : 536 пикселей
Соотношение сторон : 2,40:1
Режим частоты кадров : Постоянный
Частота кадров : 23,976 (24000/1001) кадра/сек
Стандарт вещания : Component
Цветовое пространство : YUV
Субдискретизация насыщенности : 4:2:0
Битовая глубина : 8 бит
Тип развёртки : Прогрессивная
Бит/(Пиксели*Кадры) : 0.365
Размер потока : 3,65 Гбайт (91%)
Default : Да
Forced : Нет
Цветовой диапазон : Limited
Основные цвета : BT.709
Характеристики трансфера : BT.709
Коэффициенты матрицы : BT.709

Аудио
Идентификатор : 2
Формат : AC-3
Формат/Информация : Audio Coding 3
Идентификатор кодека : A_AC3
Продолжительность : 1 ч. 27 м.
Вид битрейта : Постоянный
Битрейт : 448 Кбит/сек
Каналы : 2 канала
Расположение каналов : Front: L R
Частота : 48,0 КГц
Частота кадров : 31,250 кадров/сек (1536 SPF)
Битовая глубина : 16 бит
Метод сжатия : С потерями
Размер потока : 279 Мбайт (7%)
ServiceKind/String : Complete Main
Default : Да
Forced : Нет


picpicpic
Для увеличения картинки щелкните мышкой по превью

Этот торрент недоступен для скачивания без регистрации, однако доступен по публичной magnet-ссылке (источники с публичных трекеров). Перед использованием ссылки прочтите, пожалуйста Пользовательское соглашение, а также как можно дольше оставайтесь на раздаче! Для того, чтобы скачать сам торрент-файл (который видит больше источников), а также для того, чтобы поблагодарить релизера, вам необходимо зарегистрироваться. Если регистрироваться лень - вы можете также попробовать скачать релиз по нашим партнерским ссылкам ниже. Кроме того, зарегистрированным пользователям не показывается всплывающая реклама при скачивании.

[underverse.me].t105570.torrent
Трекер: Зарегистрирован   [ 02.06.2018 11:27 ]  

Статус: T временная (by makkol at 02.06.2018 11:28)
Поблагодарили: пока никто не поблагодарил...
Тип торрента: публичный - доступные источники с открытых трекеров: 
Размер: 4 GB (занимает 0,91 DVDR, для записи нужно 1 болванка DVDR/RW)
 
 
Похожие темы
Форум Тема Автор Торрент Отв. Посл. сооб.
T Зарубежные мультфильмы Шерлок Гномс / Sherlock Gnomes (Джон Стивенсон) [2018 г., мультфильм, фэнтези, комедия, приключения, семейный, DVDRip] Dub (Line) makkol
23 | 3

0 | 913

31

31.05.2018 21:25

T Зарубежные мультфильмы Шерлок Гномс / Sherlock Gnomes (Джон Стивенсон) [2018 г., мультфильм, фэнтези, комедия, приключения, семейный, HDRip] Dub (Line) makkol
21 | 0

0 | 979

22

02.06.2018 11:20

* Зарубежные мультфильмы Шерлок Гномс / Sherlock Gnomes (Джон Стивенсон) [2018 г., мультфильм, фэнтези, мелодрама, комедия, детектив, приключения, семейный, полнометражный, BDRip] Dub (iTunes) 90ytr90
55 | 3

0 | 681

11

01.08.2018 01:50

* Зарубежные мультфильмы Шерлок Гномс / Sherlock Gnomes (Джон Стивенсон) [2018 г., мультфильм, фэнтези, мелодрама, комедия, детектив, приключения, семейный, полнометражный, BDRip-AVC] Dub (iTunes) + Original (Eng) + Sub... 90ytr90
2 | 3

0 | 150

6

01.08.2018 01:52

* Зарубежные мультфильмы Шерлок Гномс / Sherlock Gnomes (Джон Стивенсон) [2018 г., мультфильм, фэнтези, мелодрама, комедия, детектив, приключения, семейный, полнометражный, BDRip] Dub (iTunes) + hardsub (Rus) 90ytr90
3 | 0

0 | 190

11

02.08.2018 18:29

Мультфильмы [DVD / HDDVD / BD / Remux] Шерлок Гномс / Sherlock Gnomes (Джон Стивенсон) [2017 г., мультфильм, фэнтези, мелодрама, комедия, детектив, приключения, семейный, полнометражный, BDRemux 1080p] Dub (iTunes) + Original (Eng) + Sub... 90ytr90
1 | 0

0 | 200

3

01.08.2018 01:55

T Мультфильмы [HDDVDRip / BDRip / WEB-DL / HDTV 1080/720р] Шерлок Гномс / Sherlock Gnomes (Джон Стивенсон) [2018 г., мультфильм, фэнтези, комедия, приключения, семейный, BDRip 1080p] Dub (Line) makkol
1 | 0

0 | 857

22

02.06.2018 11:32

* Мультфильмы [HDDVDRip / BDRip / WEB-DL / HDTV 1080/720р] Шерлок Гномс / Sherlock Gnomes (Джон Стивенсон) [2017 г., мультфильм, фэнтези, мелодрама, комедия, детектив, приключения, семейный, полнометражный, BDRip 1080p] Dub (iTunes) + Original (Eng) + Sub... 90ytr90
5 | 1

0 | 303

8

01.08.2018 01:54

* Мультфильмы [HDDVDRip / BDRip / WEB-DL / HDTV 1080/720р] Шерлок Гномс / Sherlock Gnomes (Джон Стивенсон) [2017 г., мультфильм, фэнтези, мелодрама, комедия, детектив, приключения, семейный, полнометражный, BDRip 720p] Dub (iTunes) + Original (Eng) + Sub... 90ytr90
17 | 4

0 | 353

9

01.08.2018 01:54

T Новинки мультфильмов [CAMRip, TS, DVDScr, WP, TC] Шерлок Гномс / Sherlock Gnomes (Джон Стивенсон) [2018 г., мультфильм, фэнтези, комедия, приключения, семейный, TS] Dub makkol
7 | 0

0 | 1105

22

17.03.2018 21:17


Яндекс.Метрика powered by Sphinx


В Н И М А Н И Е
Сайт не распространяет и не хранит электронные версии произведений, а лишь бесплатно и без коммерческой выгоды (не требуя взамен платы,
SMS и т.д.) предоставляет доступ к создаваемому пользователями каталогу ссылок на торрент-файлы, которые содержат только списки хеш-сумм.
Убедительная просьба с жалобами обращаться напрямую к пользователю, разместившему торрент файл.

Вверх