Loading...
Error

(Pop, Euro Disco, Synthpop) C.C. Catch - Hits & More (2017) [FLAC (Tracks+.Cue), Lossless]

Статистика раздачи
Размер:  516 MB   |    Зарегистрирован:  2 месяца 14 дней   |    Скачан:  5 раз

Полного источника не было: 1 день 22 часа

Сидов:  0  |  0 KB/s  ]   Личеров:  0  |  0 KB/s  ]

* - сиды/пиры с внешних источников

   
 
Автор Сообщение

Бишеп Пол:Муж

04-Июн-2018 18:54

C.C. Catch - Hits & More

Жанр: Pop, Euro Disco, Synthpop
Год выпуска: 2017
Источник: CD
Производитель диска: Frontline Productions & Records - FL030
Аудиокодек: FLAC
Тип рипа: Tracks+.CUE
Битрейт аудио: lossless
Продолжительность: 01:15:36


Треклист:
01. Backseat Of Your Cadillac (New Version) (3:24)
02. You Can Be My Lucky Star (Long Mix Version) (5:05)
03. Are You Man Enough (Maxi Mix Version) (5:56)
04. Soul Survivor (Maxi Mix Version) (5:02)
05. 'Cause You Are Young (New Version) (3:43)
06. Stay (Maxi Mix Version) (5:32)
07. Midnight Hour (Maxi Version) (7:01)
08. I Can Loose My Heart Tonight (New Version) (3:45)
09. You Shot A Hole In My Soul (Maxi Mix Version) (5:02)
10. Strangers By Night (Maxi Mix Version) (5:22)
11. House Of Mystic Lights (Mix Version) (3:47)
12. Heartbreak Hotel (Mix Version) (4:37)
13. Heaven And Hell (Maxi Mix Version) (5:01)
14. You Can Be My Lucky Star (Special Dance Version) (6:36)
15. Don't Be A Hero (Special Dance Version) (5:43)

Код:

Exact Audio Copy V1.3 from 2. September 2016

EAC extraction logfile from 29. May 2018, 19:47

C.C. Catch / Hits & More

Used drive  : TSSTcorpCDDVDW SN-208BB   Adapter: 1  ID: 0

Read mode               : Secure
Utilize accurate stream : Yes
Defeat audio cache      : Yes
Make use of C2 pointers : No

Read offset correction                      : 6
Overread into Lead-In and Lead-Out          : No
Fill up missing offset samples with silence : Yes
Delete leading and trailing silent blocks   : No
Null samples used in CRC calculations       : Yes
Used interface                              : Native Win32 interface for Win NT & 2000
Gap handling                                : Appended to previous track

Used output format              : User Defined Encoder
Selected bitrate                : 1024 kBit/s
Quality                         : High
Add ID3 tag                     : No
Command line compressor         : C:\Program Files (x86)\Exact Audio Copy\FLAC\FLAC.EXE
Additional command line options : -8 -V -T "artist=%artist%" -T "title=%title%" -T "album=%albumtitle%" -T "date=%year%" -T "tracknumber=%tracknr%" -T "genre=%genre%" %source%

TOC of the extracted CD

     Track |   Start  |  Length  | Start sector | End sector
    ---------------------------------------------------------
        1  |  0:00.00 |  3:24.01 |         0    |    15300   
        2  |  3:24.01 |  5:05.26 |     15301    |    38201   
        3  |  8:29.27 |  5:55.69 |     38202    |    64895   
        4  | 14:25.21 |  5:02.35 |     64896    |    87580   
        5  | 19:27.56 |  3:43.18 |     87581    |   104323   
        6  | 23:10.74 |  5:31.56 |    104324    |   129204   
        7  | 28:42.55 |  7:00.65 |    129205    |   160769   
        8  | 35:43.45 |  3:44.49 |    160770    |   177618   
        9  | 39:28.19 |  5:01.45 |    177619    |   200238   
       10  | 44:29.64 |  5:22.11 |    200239    |   224399   
       11  | 49:52.00 |  3:46.47 |    224400    |   241396   
       12  | 53:38.47 |  4:36.62 |    241397    |   262158   
       13  | 58:15.34 |  5:00.41 |    262159    |   284699   
       14  | 63:16.00 |  6:36.14 |    284700    |   314413   
       15  | 69:52.14 |  5:43.28 |    314414    |   340166   

Track  1

     Filename E:\Torrent\C.C. Catch - Hits & More (2017)\01 - Backseat Of Your Cadillac (New Version.wav

     Pre-gap length  0:00:02.00

     Peak level 77.9 %
     Extraction speed 1.7 X
     Track quality 100.0 %
     Test CRC F3B50AE4
     Copy CRC F3B50AE4
     Track not present in AccurateRip database
     Copy OK

Track  2

     Filename E:\Torrent\C.C. Catch - Hits & More (2017)\02 - You Can Be My Lucky Star (Long Mix Version).wav

     Peak level 100.0 %
     Extraction speed 2.0 X
     Track quality 100.0 %
     Test CRC 86DC5CBC
     Copy CRC 86DC5CBC
     Track not present in AccurateRip database
     Copy OK

Track  3

     Filename E:\Torrent\C.C. Catch - Hits & More (2017)\03 - Are You Man Enough (Maxi Mix Version).wav

     Peak level 100.0 %
     Extraction speed 2.1 X
     Track quality 99.9 %
     Test CRC FE2BCB39
     Copy CRC FE2BCB39
     Track not present in AccurateRip database
     Copy OK

Track  4

     Filename E:\Torrent\C.C. Catch - Hits & More (2017)\04 - Soul Survivor (Maxi Mix Version).wav

     Peak level 100.0 %
     Extraction speed 2.2 X
     Track quality 99.9 %
     Test CRC B3197071
     Copy CRC B3197071
     Track not present in AccurateRip database
     Copy OK

Track  5

     Filename E:\Torrent\C.C. Catch - Hits & More (2017)\05 - 'Cause You Are Young (New Version).wav

     Peak level 85.4 %
     Extraction speed 2.5 X
     Track quality 100.0 %
     Test CRC BE1AB756
     Copy CRC BE1AB756
     Track not present in AccurateRip database
     Copy OK

Track  6

     Filename E:\Torrent\C.C. Catch - Hits & More (2017)\06 - Stay (Maxi Mix Version).wav

     Peak level 100.0 %
     Extraction speed 2.8 X
     Track quality 100.0 %
     Test CRC D1C4BDA7
     Copy CRC D1C4BDA7
     Track not present in AccurateRip database
     Copy OK

Track  7

     Filename E:\Torrent\C.C. Catch - Hits & More (2017)\07 - Midnight Hour (Maxi Version).wav

     Peak level 98.0 %
     Extraction speed 3.0 X
     Track quality 100.0 %
     Test CRC FD477AC2
     Copy CRC FD477AC2
     Track not present in AccurateRip database
     Copy OK

Track  8

     Filename E:\Torrent\C.C. Catch - Hits & More (2017)\08 - I Can Loose My Heart Tonight (New Version).wav

     Peak level 72.1 %
     Extraction speed 2.9 X
     Track quality 100.0 %
     Test CRC 97000675
     Copy CRC 97000675
     Track not present in AccurateRip database
     Copy OK

Track  9

     Filename E:\Torrent\C.C. Catch - Hits & More (2017)\09 - You Shot A Hole In My Soul (Maxi Mix Version).wav

     Peak level 100.0 %
     Extraction speed 3.2 X
     Track quality 100.0 %
     Test CRC 87C27A15
     Copy CRC 87C27A15
     Track not present in AccurateRip database
     Copy OK

Track 10

     Filename E:\Torrent\C.C. Catch - Hits & More (2017)\10 - Strangers By Night (Maxi Mix Version).wav

     Peak level 100.0 %
     Extraction speed 3.3 X
     Track quality 100.0 %
     Test CRC 57C208A2
     Copy CRC 57C208A2
     Track not present in AccurateRip database
     Copy OK

Track 11

     Filename E:\Torrent\C.C. Catch - Hits & More (2017)\11 - House Of Mystic Lights (Mix Version).wav

     Peak level 100.0 %
     Extraction speed 3.3 X
     Track quality 100.0 %
     Test CRC D9095222
     Copy CRC D9095222
     Track not present in AccurateRip database
     Copy OK

Track 12

     Filename E:\Torrent\C.C. Catch - Hits & More (2017)\12 - Heartbreak Hotel (Mix Version).wav

     Peak level 100.0 %
     Extraction speed 3.5 X
     Track quality 100.0 %
     Test CRC 303FEACF
     Copy CRC 303FEACF
     Track not present in AccurateRip database
     Copy OK

Track 13

     Filename E:\Torrent\C.C. Catch - Hits & More (2017)\13 - Heaven And Hell (Maxi Mix Version).wav

     Peak level 100.0 %
     Extraction speed 3.6 X
     Track quality 100.0 %
     Test CRC 66CFF698
     Copy CRC 66CFF698
     Track not present in AccurateRip database
     Copy OK

Track 14

     Filename E:\Torrent\C.C. Catch - Hits & More (2017)\14 - You Can Be My Lucky Star (Special Dance Version).wav

     Peak level 94.9 %
     Extraction speed 3.9 X
     Track quality 100.0 %
     Test CRC C9BCB2C6
     Copy CRC C9BCB2C6
     Track not present in AccurateRip database
     Copy OK

Track 15

     Filename E:\Torrent\C.C. Catch - Hits & More (2017)\15 - Don't Be A Hero (Special Dance Version).wav

     Peak level 96.6 %
     Extraction speed 3.9 X
     Track quality 100.0 %
     Test CRC 690AE0FC
     Copy CRC 690AE0FC
     Track not present in AccurateRip database
     Copy OK

None of the tracks are present in the AccurateRip database

No errors occurred

End of status report

---- CUETools DB Plugin V2.1.6

[CTDB TOCID: rXCeJwVOWNAXsTzFSWhC3oJbELo-] found
Submit result: rXCeJwVOWNAXsTzFSWhC3oJbELo- has been confirmed
Track | CTDB Status
  1   | (2/2) Accurately ripped
  2   | (2/2) Accurately ripped
  3   | (2/2) Accurately ripped
  4   | (2/2) Accurately ripped
  5   | (2/2) Accurately ripped
  6   | (2/2) Accurately ripped
  7   | (2/2) Accurately ripped
  8   | (2/2) Accurately ripped
  9   | (2/2) Accurately ripped
 10   | (2/2) Accurately ripped
 11   | (2/2) Accurately ripped
 12   | (2/2) Accurately ripped
 13   | (2/2) Accurately ripped
 14   | (2/2) Accurately ripped
 15   | (2/2) Accurately ripped

==== Log checksum F45B218CC3E86EF7FBD7C85E8CC9AB8B81E02714C3B4620EF92AFDCF5B1709C6 ====

Код:

REM GENRE Disco
REM DATE 2017
REM DISCID DF11B70F
REM COMMENT "ExactAudioCopy v1.3"
PERFORMER "C.C. Catch"
TITLE "Hits & More"
REM COMPOSER ""
FILE "01 - Backseat Of Your Cadillac (New Version.wav" WAVE
  TRACK 01 AUDIO
    TITLE "Backseat Of Your Cadillac (New Version"
    PERFORMER "C.C. Catch"
    REM COMPOSER ""
    INDEX 01 00:00:00
FILE "02 - You Can Be My Lucky Star (Long Mix Version).wav" WAVE
  TRACK 02 AUDIO
    TITLE "You Can Be My Lucky Star (Long Mix Version)"
    PERFORMER "C.C. Catch"
    REM COMPOSER ""
    INDEX 01 00:00:00
FILE "03 - Are You Man Enough (Maxi Mix Version).wav" WAVE
  TRACK 03 AUDIO
    TITLE "Are You Man Enough (Maxi Mix Version)"
    PERFORMER "C.C. Catch"
    REM COMPOSER ""
    INDEX 01 00:00:00
FILE "04 - Soul Survivor (Maxi Mix Version).wav" WAVE
  TRACK 04 AUDIO
    TITLE "Soul Survivor (Maxi Mix Version)"
    PERFORMER "C.C. Catch"
    REM COMPOSER ""
    INDEX 01 00:00:00
FILE "05 - 'Cause You Are Young (New Version).wav" WAVE
  TRACK 05 AUDIO
    TITLE "'Cause You Are Young (New Version)"
    PERFORMER "C.C. Catch"
    REM COMPOSER ""
    INDEX 01 00:00:00
FILE "06 - Stay (Maxi Mix Version).wav" WAVE
  TRACK 06 AUDIO
    TITLE "Stay (Maxi Mix Version)"
    PERFORMER "C.C. Catch"
    REM COMPOSER ""
    INDEX 01 00:00:00
FILE "07 - Midnight Hour (Maxi Version).wav" WAVE
  TRACK 07 AUDIO
    TITLE "Midnight Hour (Maxi Version)"
    PERFORMER "C.C. Catch"
    REM COMPOSER ""
    INDEX 01 00:00:00
FILE "08 - I Can Loose My Heart Tonight (New Version).wav" WAVE
  TRACK 08 AUDIO
    TITLE "I Can Loose My Heart Tonight (New Version)"
    PERFORMER "C.C. Catch"
    REM COMPOSER ""
    INDEX 01 00:00:00
FILE "09 - You Shot A Hole In My Soul (Maxi Mix Version).wav" WAVE
  TRACK 09 AUDIO
    TITLE "You Shot A Hole In My Soul (Maxi Mix Version)"
    PERFORMER "C.C. Catch"
    REM COMPOSER ""
    INDEX 01 00:00:00
FILE "10 - Strangers By Night (Maxi Mix Version).wav" WAVE
  TRACK 10 AUDIO
    TITLE "Strangers By Night (Maxi Mix Version)"
    PERFORMER "C.C. Catch"
    REM COMPOSER ""
    INDEX 01 00:00:00
FILE "11 - House Of Mystic Lights (Mix Version).wav" WAVE
  TRACK 11 AUDIO
    TITLE "House Of Mystic Lights (Mix Version)"
    PERFORMER "C.C. Catch"
    REM COMPOSER ""
    INDEX 01 00:00:00
FILE "12 - Heartbreak Hotel (Mix Version).wav" WAVE
  TRACK 12 AUDIO
    TITLE "Heartbreak Hotel (Mix Version)"
    PERFORMER "C.C. Catch"
    REM COMPOSER ""
    INDEX 01 00:00:00
FILE "13 - Heaven And Hell (Maxi Mix Version).wav" WAVE
  TRACK 13 AUDIO
    TITLE "Heaven And Hell (Maxi Mix Version)"
    PERFORMER "C.C. Catch"
    REM COMPOSER ""
    INDEX 01 00:00:00
FILE "14 - You Can Be My Lucky Star (Special Dance Version).wav" WAVE
  TRACK 14 AUDIO
    TITLE "You Can Be My Lucky Star (Special Dance Version)"
    PERFORMER "C.C. Catch"
    REM COMPOSER ""
    INDEX 01 00:00:00
FILE "15 - Don't Be A Hero (Special Dance Version).wav" WAVE
  TRACK 15 AUDIO
    TITLE "Don't Be A Hero (Special Dance Version)"
    PERFORMER "C.C. Catch"
    REM COMPOSER ""
    INDEX 01 00:00:00


Этот торрент недоступен для скачивания без регистрации, однако доступен по публичной magnet-ссылке (источники с публичных трекеров). Перед использованием ссылки прочтите, пожалуйста Пользовательское соглашение, а также как можно дольше оставайтесь на раздаче! Для того, чтобы скачать сам торрент-файл (который видит больше источников), а также для того, чтобы поблагодарить релизера, вам необходимо зарегистрироваться. Если регистрироваться лень - вы можете также попробовать скачать релиз по нашим партнерским ссылкам ниже. Кроме того, зарегистрированным пользователям не показывается всплывающая реклама при скачивании.

[underverse.me].t105684.torrent
Трекер: Зарегистрирован   [ 04.06.2018 18:54 ]  

Статус: проверено (by Бишеп at 04.06.2018 18:54)
Поблагодарили: пока никто не поблагодарил...
Тип торрента: публичный - доступные источники с открытых трекеров: 
Размер: 516 MB (занимает 0,12 DVDR, для записи нужно 1 болванка DVDR/RW)
 
 
Похожие темы
Форум Тема Автор Торрент Отв. Посл. сооб.
Зарубежная Pop Музыка (Pop, Eurodisco, Synthpop) Eighth Wonder - The Remix Anthology (2014) [MP3, 320 kbps] 90ytr90
1 | 1

0 | 1094

2

18.03.2015 22:25

Сборники Pop, Disco, Dance (Pop, Euro Dance) VA - 30 Magic Summer Chart Hits Of 2018 (2018) [MP3, 320 kbps CBR] 90ytr90
19 | 1

0 | 104

4

21.07.2018 06:40

Неофициальные и внежанровые сборники (Pop, Eurodance) VA - Дискотека Нашего Детства (2012) [MP3, 128 kbps CBR] Evgenii82
0 | 0

0 | 1282

18

09.08.2014 08:56

Зарубежная Поп Музыка (Lossless) (Pop, Euro House, Disco) Cher - Believe (1998) [FLAC (Image+.CUE), Lossless] Бишеп
3 | 0

1 | 2458

8

27.10.2013 19:30

Зарубежная Поп Музыка (Lossless) (Pop, Europop) Sandra - 18 Greatest Hits (1992) [FLAC (Image+.CUE), Lossless] Бишеп
1 | 1

1 | 1428

17

21.04.2014 05:41

Зарубежная Поп Музыка (Lossless) (Pop, Euro House) Jennifer Lopez - Love? (Deluxe Edition) (2011) [FLAC (Tracks+.CUE) Lossless] Бишеп
3 | 7

0 | 1743

5

08.09.2014 16:44

Зарубежная Поп Музыка (Lossless) (Pop, Europop, Disco) ABBA - Live At Wembley Arena (2CD) (2014) [FLAC (Image+.CUE), Lossless] Бишеп
9 | 0

0 | 1572

13

11.11.2014 20:45

Зарубежная Поп Музыка (Lossless) (Pop, Europop, Ballad) Al Bano & Romina Power - Aria Pura (2002) [FLAC (Tracks+.CUE), Lossless] Бишеп
0 | 0

0 | 845

6

21.11.2014 20:51

Зарубежная Поп Музыка (Lossless) (Pop, Europop) Alizee - 5 (2013) [FLAC (Image+.CUE), Lossless] Бишеп
3 | 0

0 | 1096

7

08.12.2014 14:03

Зарубежная Поп Музыка (Lossless) (Pop, Europop, Euro House) Sarah Connor - Green Eyed Soul (2001) [FLAC (Tracks+.CUE), Lossless] Бишеп
0 | 0

0 | 1129

11

29.03.2015 05:57


Яндекс.Метрика powered by Sphinx


В Н И М А Н И Е
Сайт не распространяет и не хранит электронные версии произведений, а лишь бесплатно и без коммерческой выгоды (не требуя взамен платы,
SMS и т.д.) предоставляет доступ к создаваемому пользователями каталогу ссылок на торрент-файлы, которые содержат только списки хеш-сумм.
Убедительная просьба с жалобами обращаться напрямую к пользователю, разместившему торрент файл.

Вверх