Loading...
Error

Смешарики. Дежавю (Денис Чернов) [2018 г., мультфильм, комедия, приключения, семейный, WEB-DL 1080p] Rus (iTunes)

Статистика раздачи
Размер:  2,9 GB   |    Зарегистрирован:  5 месяцев 7 дней   |    Скачан:  35 раз

Полного источника не было: 1 день 10 часов

Сидов:  0  |  0 KB/s  ]   Личеров:  0  |  0 KB/s  ]

* - сиды/пиры с внешних источников

   
 
Автор Сообщение

makkol Пол:Муж

08-Июн-2018 12:44

Смешарики. Дежавю
«Полное Крошилово!»


Год выпуска: 2018
Жанр: мультфильм, комедия, приключения, семейный
Производство: Россия [Группа Компаний «Рики», Art Pictures Studio, Студия Анимации «Петербург»]
Режиссер: Денис Чернов
Роли озвучивали: Антон Виноградо, Сергей Мардарь,Михаил Черняк, Владимир Постников, Светлана Письмиченко, Вадим Бочанов, Павел Деревянко
Сюжет фильма:
Крош решает устроить незабываемый день рождения Копатыча — он обращается в агентство «Дежавю», которое обещает своим клиентам удивительные путешествия во времени. Но из-за несоблюдения условий договора всех смешариков раскидывает во времени, а Крошу придется собирать друзей по разным эпохам в компании своего второго «Я» — повзрослевшего и ворчливого Шорка, появившегося из-за временного парадокса.

  • Российская премьера: 26 апреля 2018


Качество видео: WEB-DL 1080p

Продолжительность: 01:25:06
Формат: MKV
Видео: MPEG-4 AVC, 1912x796 (2.40:1), 23.976 fps, 4499 kbps
Аудио: русский, оригинал (iTunes), AC3 5.1, 48 kHz, 384 kbps

Код:

Формат                                   : Matroska
Версия формата                           : Version 4 / Version 2
Размер файла                             : 2,90 Гбайт
Продолжительность                        : 1 ч. 25 м.
Общий поток                              : 4885 Кбит/сек
Дата кодирования                         : UTC 2018-06-07 01:14:31
Программа кодирования                    : mkvmerge v23.0.0 ('The Bride Said No') 32-bit
Библиотека кодирования                   : libebml v1.3.6 + libmatroska v1.4.9

Видео
Идентификатор                            : 2
Формат                                   : AVC
Формат/Информация                        : Advanced Video Codec
Профиль формата                          : High@L4
Параметр CABAC формата                   : Да
Параметр ReFrames формата                : 5 кадров
Идентификатор кодека                     : V_MPEG4/ISO/AVC
Продолжительность                        : 1 ч. 25 м.
Битрейт                                  : 4499 Кбит/сек
Ширина                                   : 1912 пикселей
Высота                                   : 796 пикселей
Соотношение сторон                       : 2,40:1
Режим частоты кадров                     : Постоянный
Частота кадров                           : 23,976 кадра/сек
Цветовое пространство                    : YUV
Субдискретизация насыщенности            : 4:2:0
Битовая глубина                          : 8 бит
Тип развёртки                            : Прогрессивная
Бит/(Пиксели*Кадры)                      : 0.123
Размер потока                            : 2,68 Гбайт (92%)
Язык                                     : English
Default                                  : Да
Forced                                   : Нет
Цветовой диапазон                        : Limited
Основные цвета                           : BT.709
Характеристики трансфера                 : BT.709
Коэффициенты матрицы                     : BT.709

Аудио
Идентификатор                            : 1
Формат                                   : AC-3
Формат/Информация                        : Audio Coding 3
Расширение режима                        : CM (complete main)
Параметр Endianness формата              : Big
Идентификатор кодека                     : A_AC3
Продолжительность                        : 1 ч. 25 м.
Вид битрейта                             : Постоянный
Битрейт                                  : 384 Кбит/сек
Каналы                                   : 6 каналов
Расположение каналов                     : Front: L C R, Side: L R, LFE
Частота                                  : 48,0 КГц
Частота кадров                           : 31,250 кадров/сек (1536 spf)
Метод сжатия                             : С потерями
Задержка видео                           : -42 мс.
Размер потока                            : 234 Мбайт (8%)
Язык                                     : Russian
Default                                  : Да
Forced                                   : Нет

Меню
00:00:00.000                             : en:1
00:04:23.000                             : en:2
00:14:04.000                             : en:3
00:30:01.000                             : en:4
00:44:52.000                             : en:5
00:50:51.000                             : en:6
01:02:17.000                             : en:7
01:11:52.000                             : en:8
01:20:03.000                             : en:9
picpicpicpicpic
Для увеличения картинки щелкните мышкой по превью

Этот торрент недоступен для скачивания без регистрации, однако доступен по публичной magnet-ссылке (источники с публичных трекеров). Перед использованием ссылки прочтите, пожалуйста Пользовательское соглашение, а также как можно дольше оставайтесь на раздаче! Для того, чтобы скачать сам торрент-файл (который видит больше источников), а также для того, чтобы поблагодарить релизера, вам необходимо зарегистрироваться. Если регистрироваться лень - вы можете также попробовать скачать релиз по нашим партнерским ссылкам ниже. Кроме того, зарегистрированным пользователям не показывается всплывающая реклама при скачивании.

[underverse.in].t105813.torrent
Трекер: Зарегистрирован   [ 08.06.2018 12:44 ]  

Статус: © запрещена на территории РФ (by Паукан at 14.06.2018 08:54)
Поблагодарили: 2 человека
Тип торрента: публичный - доступные источники с открытых трекеров: 
Размер: 2,9 GB (занимает 2/3 DVDR, для записи нужно 1 болванка DVDR/RW)
 
 
Похожие темы
Форум Тема Автор Торрент Отв. Посл. сооб.
Мультфильмы [HDDVDRip / BDRip / WEB-DL / HDTV 1080/720р] Смешарики. Легенда о золотом драконе (Денис Чернов) [2016 г., мультфильм, приключения, комедия, BDRip 720p] makkol
3 | 2

0 | 1068

24

25.05.2016 23:15

Мультфильмы [HDDVDRip / BDRip / WEB-DL / HDTV 1080/720р] Смешарики. Легенда о золотом драконе (Денис Чернов) [2016 г., мультфильм, приключения, комедия, BDRip 1080p] makkol
3 | 0

0 | 1012

12

27.05.2016 21:45

* Мультфильмы [HDDVDRip / BDRip / WEB-DL / HDTV 1080/720р] Смешарики. Дежавю (Денис Чернов) [2018 г., мультфильм, комедия, приключения, семейный, BDRip 1080p] 90ytr90
122 | 2

0 | 399

9

10.07.2018 13:58

* Мультфильмы [HDDVDRip / BDRip / WEB-DL / HDTV 1080/720р] Смешарики. Дежавю (Денис Чернов) [2018 г., мультфильм, комедия, приключения, семейный, BDRip 720p] 90ytr90
105 | 0

0 | 313

9

10.07.2018 13:58

© Новинки мультфильмов [CAMRip, TS, DVDScr, WP, TC] Смешарики. Дежавю (Денис Чернов) [2018 г., мультфильм, комедия, приключения, семейный, TS] makkol
25 | 1
1,37 GB

0 | 833

13

27.04.2018 20:50

© Новинки мультфильмов [CAMRip, TS, DVDScr, WP, TC] Смешарики. Дежавю (Денис Чернов) [2018 г., мультфильм, комедия, приключения, семейный, TS 720p] makkol
1 | 0
1,9 GB

0 | 973

29

27.04.2018 20:54

Отечественные мультфильмы Смешарики. Начало (Денис Чернов) [2011 г., Мультфильм, комедия, приключения, семейный , DVDRip] МУХА~
0 | 0

3 | 1608

81

16.09.2012 03:17

Отечественные мультфильмы Смешарики. Легенда о золотом драконе (Денис Чернов) [2016 г., мультфильм, приключения, комедия, HDRip] makkol
242 | 1

0 | 1863

56

25.05.2016 14:28

© Отечественные мультфильмы Смешарики. Дежавю (Денис Чернов) [2018 г., мультфильм, комедия, приключения, семейный, WEB-DLRip] Rus (iTunes) makkol
79 | 0
1,37 GB

0 | 885

22

08.06.2018 12:36

* Отечественные мультфильмы Смешарики. Дежавю (Денис Чернов) [2018 г., мультфильм, комедия, приключения, семейный, BDRip] 90ytr90
377 | 4

0 | 1239

10

10.07.2018 13:59


Яндекс.Метрика powered by Sphinx


В Н И М А Н И Е
Сайт не распространяет и не хранит электронные версии произведений, а лишь бесплатно и без коммерческой выгоды (не требуя взамен платы,
SMS и т.д.) предоставляет доступ к создаваемому пользователями каталогу ссылок на торрент-файлы, которые содержат только списки хеш-сумм.
Убедительная просьба с жалобами обращаться напрямую к пользователю, разместившему торрент файл.

Вверх