Loading...
Error

(Pop Rock, Folk, World) Sonny & Cher - The Best of Sonny & Cher - The Beat Goes On (1991) [FLAC (Tracks+.CUE), Lossless]

Статистика раздачи
Размер:  323 MB   |    Зарегистрирован:  2 месяца 3 дня   |    Скачан:  2 раза
Сидов:  1  |  0 KB/s  ]   Личеров:  0  |  0 KB/s  ]

* - сиды/пиры с внешних источников

   
 
Автор Сообщение

Бишеп Пол:Муж

11-Июн-2018 20:27

Sonny & Cher - The Best of Sonny & Cher - The Beat Goes On

Жанр: Pop Rock, Folk, World
Год выпуска: 1991
Источник: CD
Производитель диска: ATCO Records - 7 91796-2 / 91796-2
Аудиокодек: FLAC
Тип рипа: Tracks+.CUE
Битрейт аудио: lossless
Продолжительность: 01:08:16


Треклист:
01. Baby Don't Go
02. Just You
03. Sing C'est La Vie
04. I Got You Babe
05. Why Don't They Let Us Fall In Love
06. Laugh At Me (Sonny solo)
07. But You're Mine
08. The Revolution Kind (Sonny solo)
09. What Now My Love
10. Have I Stayed Too Long
11. Leave Me Be
12. Little Man
13. Living For You
14. Love Don't Come
15. The Beat Goes On
16. Beautiful Story
17. It's the Little Things
18. My Best Friend's Girl Is Out of Sight (Sonny solo)
19. Good Combination
20. I Got You Babe ('Good Times' Soundtrack Version)
21. Hello

Код:

Exact Audio Copy V0.99 prebeta 4 from 23. January 2008

EAC extraction logfile from 20. May 2009, 14:39

Sonny & Cher / The Best of Sonny & Cher - The Beat Goes On

Used drive  : PIONEER DVD-RW  DVR-110D   Adapter: 1  ID: 1

Read mode               : Secure
Utilize accurate stream : Yes
Defeat audio cache      : Yes
Make use of C2 pointers : No

Read offset correction                      : 48
Overread into Lead-In and Lead-Out          : No
Fill up missing offset samples with silence : Yes
Delete leading and trailing silent blocks   : No
Null samples used in CRC calculations       : Yes
Used interface                              : Installed external ASPI interface
Gap handling                                : Appended to previous track

Used output format              : User Defined Encoder
Selected bitrate                : 1024 kBit/s
Quality                         : High
Add ID3 tag                     : No
Command line compressor         : C:\Program Files\Exact Audio Copy\Flac\flac.exe
Additional command line options : -V -8 -T "artist=%a" -T "title=%t" -T "album=%g" -T "date=%y" -T "tracknumber=%n" -T "genre=%m" %s

TOC of the extracted CD

     Track |   Start  |  Length  | Start sector | End sector
    ---------------------------------------------------------
        1  |  0:00.33 |  3:12.30 |        33    |    14462   
        2  |  3:12.63 |  4:06.60 |     14463    |    32972   
        3  |  7:19.48 |  3:41.57 |     32973    |    49604   
        4  | 11:01.30 |  3:13.63 |     49605    |    64142   
        5  | 14:15.18 |  2:37.32 |     64143    |    75949   
        6  | 16:52.50 |  2:53.43 |     75950    |    88967   
        7  | 19:46.18 |  3:05.42 |     88968    |   102884   
        8  | 22:51.60 |  3:27.45 |    102885    |   118454   
        9  | 26:19.30 |  3:38.63 |    118455    |   134867   
       10  | 29:58.18 |  3:45.45 |    134868    |   151787   
       11  | 33:43.63 |  2:05.30 |    151788    |   161192   
       12  | 35:49.18 |  3:22.50 |    161193    |   176392   
       13  | 39:11.68 |  3:40.45 |    176393    |   192937   
       14  | 42:52.38 |  3:04.30 |    192938    |   206767   
       15  | 45:56.68 |  3:30.00 |    206768    |   222517   
       16  | 49:26.68 |  2:53.25 |    222518    |   235517   
       17  | 52:20.18 |  3:06.05 |    235518    |   249472   
       18  | 55:26.23 |  4:17.50 |    249473    |   268797   
       19  | 59:43.73 |  2:59.52 |    268798    |   282274   
       20  | 62:43.50 |  2:20.33 |    282275    |   292807   
       21  | 65:04.08 |  3:11.67 |    292808    |   307199   

Track  1

     Filename F:\Sonny & Cher - The Beat Goes On\01 - Baby Don't Go.wav

     Pre-gap length  0:00:02.33

     Peak level 73.4 %
     Track quality 100.0 %
     Test CRC DD6B3D60
     Copy CRC DD6B3D60
     Accurately ripped (confidence 11)  [F7CF6D1B]
     Copy OK

Track  2

     Filename F:\Sonny & Cher - The Beat Goes On\02 - Just You.wav

     Pre-gap length  0:00:02.43

     Peak level 99.4 %
     Track quality 100.0 %
     Test CRC 769B08EA
     Copy CRC 769B08EA
     Accurately ripped (confidence 10)  [3625DBD7]
     Copy OK

Track  3

     Filename F:\Sonny & Cher - The Beat Goes On\03 - Sing C'est La Vie.wav

     Pre-gap length  0:00:02.23

     Peak level 82.5 %
     Track quality 100.0 %
     Test CRC 7E3F9C1A
     Copy CRC 7E3F9C1A
     Accurately ripped (confidence 10)  [D8382CDE]
     Copy OK

Track  4

     Filename F:\Sonny & Cher - The Beat Goes On\04 - I Got You Babe.wav

     Pre-gap length  0:00:02.60

     Peak level 97.3 %
     Track quality 100.0 %
     Test CRC ED5FA915
     Copy CRC ED5FA915
     Accurately ripped (confidence 12)  [CE7BC4D5]
     Copy OK

Track  5

     Filename F:\Sonny & Cher - The Beat Goes On\05 - Why Don't They Let Us Fall In Love.wav

     Pre-gap length  0:00:02.35

     Peak level 96.3 %
     Track quality 100.0 %
     Test CRC F40FA0BD
     Copy CRC F40FA0BD
     Accurately ripped (confidence 10)  [80A1D61A]
     Copy OK

Track  6

     Filename F:\Sonny & Cher - The Beat Goes On\06 - Laugh At Me (Sonny solo).wav

     Pre-gap length  0:00:00.10

     Peak level 91.6 %
     Track quality 100.0 %
     Test CRC 0B31A751
     Copy CRC 0B31A751
     Accurately ripped (confidence 10)  [38D52B46]
     Copy OK

Track  7

     Filename F:\Sonny & Cher - The Beat Goes On\07 - But You're Mine.wav

     Pre-gap length  0:00:00.35

     Peak level 85.9 %
     Track quality 100.0 %
     Test CRC E2989E2C
     Copy CRC E2989E2C
     Accurately ripped (confidence 10)  [45973679]
     Copy OK

Track  8

     Filename F:\Sonny & Cher - The Beat Goes On\08 - The Revolution Kind (Sonny solo).wav

     Pre-gap length  0:00:00.27

     Peak level 95.4 %
     Track quality 100.0 %
     Test CRC E700B081
     Copy CRC E700B081
     Accurately ripped (confidence 10)  [F0682D0F]
     Copy OK

Track  9

     Filename F:\Sonny & Cher - The Beat Goes On\09 - What Now My Love.wav

     Pre-gap length  0:00:02.40

     Peak level 89.3 %
     Track quality 99.9 %
     Test CRC 57CADDBC
     Copy CRC 57CADDBC
     Accurately ripped (confidence 10)  [CFD84A24]
     Copy OK

Track 10

     Filename F:\Sonny & Cher - The Beat Goes On\10 - Have I Stayed Too Long.wav

     Pre-gap length  0:00:00.25

     Peak level 95.1 %
     Track quality 100.0 %
     Test CRC B02A2F43
     Copy CRC B02A2F43
     Accurately ripped (confidence 10)  [67B021D7]
     Copy OK

Track 11

     Filename F:\Sonny & Cher - The Beat Goes On\11 - Leave Me Be.wav

     Pre-gap length  0:00:00.48

     Peak level 84.4 %
     Track quality 100.0 %
     Test CRC 2CC2F07D
     Copy CRC 2CC2F07D
     Accurately ripped (confidence 10)  [A05D8BF5]
     Copy OK

Track 12

     Filename F:\Sonny & Cher - The Beat Goes On\12 - Little Man.wav

     Pre-gap length  0:00:02.20

     Peak level 65.9 %
     Track quality 100.0 %
     Test CRC 2857FF13
     Copy CRC 2857FF13
     Accurately ripped (confidence 11)  [AF19CC55]
     Copy OK

Track 13

     Filename F:\Sonny & Cher - The Beat Goes On\13 - Living For You.wav

     Pre-gap length  0:00:02.28

     Peak level 80.5 %
     Track quality 100.0 %
     Test CRC 40D8178A
     Copy CRC 40D8178A
     Accurately ripped (confidence 9)  [2576D3C5]
     Copy OK

Track 14

     Filename F:\Sonny & Cher - The Beat Goes On\14 - Love Don't Come.wav

     Pre-gap length  0:00:02.48

     Peak level 87.9 %
     Track quality 100.0 %
     Test CRC ADA2FF68
     Copy CRC ADA2FF68
     Accurately ripped (confidence 9)  [9E8C04A2]
     Copy OK

Track 15

     Filename F:\Sonny & Cher - The Beat Goes On\15 - The Beat Goes On.wav

     Pre-gap length  0:00:02.23

     Peak level 84.7 %
     Track quality 100.0 %
     Test CRC C7AA9E18
     Copy CRC C7AA9E18
     Accurately ripped (confidence 12)  [16242D6E]
     Copy OK

Track 16

     Filename F:\Sonny & Cher - The Beat Goes On\16 - Beautiful Story.wav

     Pre-gap length  0:00:02.48

     Peak level 71.3 %
     Track quality 99.9 %
     Test CRC EF5DB50D
     Copy CRC EF5DB50D
     Accurately ripped (confidence 10)  [74DEC4BB]
     Copy OK

Track 17

     Filename F:\Sonny & Cher - The Beat Goes On\17 - It's the Little Things.wav

     Pre-gap length  0:00:02.43

     Peak level 99.9 %
     Track quality 100.0 %
     Test CRC 3A448483
     Copy CRC 3A448483
     Accurately ripped (confidence 10)  [E5C786CA]
     Copy OK

Track 18

     Filename F:\Sonny & Cher - The Beat Goes On\18 - My Best Friend's Girl Is Out of Sight (Sonny solo).wav

     Pre-gap length  0:00:03.13

     Peak level 100.0 %
     Track quality 99.9 %
     Test CRC 4D08D348
     Copy CRC 4D08D348
     Accurately ripped (confidence 10)  [6CAF531D]
     Copy OK

Track 19

     Filename F:\Sonny & Cher - The Beat Goes On\19 - Good Combination.wav

     Pre-gap length  0:00:03.63

     Peak level 96.7 %
     Track quality 100.0 %
     Test CRC 87D3A416
     Copy CRC 87D3A416
     Accurately ripped (confidence 10)  [2478E3C6]
     Copy OK

Track 20

     Filename F:\Sonny & Cher - The Beat Goes On\20 - I Got You Babe ('Good Times' Soundtrack Version).wav

     Pre-gap length  0:00:02.55

     Peak level 47.5 %
     Track quality 99.9 %
     Test CRC F79306BA
     Copy CRC F79306BA
     Accurately ripped (confidence 11)  [9FB64545]
     Copy OK

Track 21

     Filename F:\Sonny & Cher - The Beat Goes On\21 - Hello.wav

     Pre-gap length  0:00:03.48

     Peak level 47.4 %
     Track quality 100.0 %
     Test CRC 0608C8BF
     Copy CRC 0608C8BF
     Accurately ripped (confidence 10)  [0CBC8EAF]
     Copy OK

All tracks accurately ripped

No errors occurred

End of status report

Код:

REM GENRE Rock
REM DATE 1991
REM DISCID 31100015
REM COMMENT "ExactAudioCopy v0.99pb4"
PERFORMER "Sonny & Cher"
TITLE "The Best of Sonny & Cher - The Beat Goes On"
FILE "01 - Baby Don't Go.wav" WAVE
  TRACK 01 AUDIO
    TITLE "Baby Don't Go"
    PERFORMER "Sonny & Cher"
    PREGAP 00:00:33
    INDEX 01 00:00:00
  TRACK 02 AUDIO
    TITLE "Just You"
    PERFORMER "Sonny & Cher"
    INDEX 00 03:09:62
FILE "02 - Just You.wav" WAVE
    INDEX 01 00:00:00
  TRACK 03 AUDIO
    TITLE "Sing C'est La Vie"
    PERFORMER "Sonny & Cher"
    INDEX 00 04:04:37
FILE "03 - Sing C'est La Vie.wav" WAVE
    INDEX 01 00:00:00
  TRACK 04 AUDIO
    TITLE "I Got You Babe"
    PERFORMER "Sonny & Cher"
    INDEX 00 03:38:72
FILE "04 - I Got You Babe.wav" WAVE
    INDEX 01 00:00:00
  TRACK 05 AUDIO
    TITLE "Why Don't They Let Us Fall In Love"
    PERFORMER "Sonny & Cher"
    INDEX 00 03:11:28
FILE "05 - Why Don't They Let Us Fall In Love.wav" WAVE
    INDEX 01 00:00:00
  TRACK 06 AUDIO
    TITLE "Laugh At Me (Sonny solo)"
    PERFORMER "Sonny & Cher"
    INDEX 00 02:37:22
FILE "06 - Laugh At Me (Sonny solo).wav" WAVE
    INDEX 01 00:00:00
  TRACK 07 AUDIO
    TITLE "But You're Mine"
    PERFORMER "Sonny & Cher"
    INDEX 00 02:53:08
FILE "07 - But You're Mine.wav" WAVE
    INDEX 01 00:00:00
  TRACK 08 AUDIO
    TITLE "The Revolution Kind (Sonny solo)"
    PERFORMER "Sonny & Cher"
    INDEX 00 03:05:15
FILE "08 - The Revolution Kind (Sonny solo).wav" WAVE
    INDEX 01 00:00:00
  TRACK 09 AUDIO
    TITLE "What Now My Love"
    PERFORMER "Sonny & Cher"
    INDEX 00 03:25:05
FILE "09 - What Now My Love.wav" WAVE
    INDEX 01 00:00:00
  TRACK 10 AUDIO
    TITLE "Have I Stayed Too Long"
    PERFORMER "Sonny & Cher"
    INDEX 00 03:38:38
FILE "10 - Have I Stayed Too Long.wav" WAVE
    INDEX 01 00:00:00
  TRACK 11 AUDIO
    TITLE "Leave Me Be"
    PERFORMER "Sonny & Cher"
    INDEX 00 03:44:72
FILE "11 - Leave Me Be.wav" WAVE
    INDEX 01 00:00:00
  TRACK 12 AUDIO
    TITLE "Little Man"
    PERFORMER "Sonny & Cher"
    INDEX 00 02:03:10
FILE "12 - Little Man.wav" WAVE
    INDEX 01 00:00:00
  TRACK 13 AUDIO
    TITLE "Living For You"
    PERFORMER "Sonny & Cher"
    INDEX 00 03:20:22
FILE "13 - Living For You.wav" WAVE
    INDEX 01 00:00:00
  TRACK 14 AUDIO
    TITLE "Love Don't Come"
    PERFORMER "Sonny & Cher"
    INDEX 00 03:37:72
FILE "14 - Love Don't Come.wav" WAVE
    INDEX 01 00:00:00
  TRACK 15 AUDIO
    TITLE "The Beat Goes On"
    PERFORMER "Sonny & Cher"
    INDEX 00 03:02:07
FILE "15 - The Beat Goes On.wav" WAVE
    INDEX 01 00:00:00
  TRACK 16 AUDIO
    TITLE "Beautiful Story"
    PERFORMER "Sonny & Cher"
    INDEX 00 03:27:27
FILE "16 - Beautiful Story.wav" WAVE
    INDEX 01 00:00:00
  TRACK 17 AUDIO
    TITLE "It's the Little Things"
    PERFORMER "Sonny & Cher"
    INDEX 00 02:50:57
FILE "17 - It's the Little Things.wav" WAVE
    INDEX 01 00:00:00
  TRACK 18 AUDIO
    TITLE "My Best Friend's Girl Is Out of Sight (Sonny solo)"
    PERFORMER "Sonny & Cher"
    INDEX 00 03:02:67
FILE "18 - My Best Friend's Girl Is Out of Sight (Sonny solo).wav" WAVE
    INDEX 01 00:00:00
  TRACK 19 AUDIO
    TITLE "Good Combination"
    PERFORMER "Sonny & Cher"
    INDEX 00 04:13:62
FILE "19 - Good Combination.wav" WAVE
    INDEX 01 00:00:00
  TRACK 20 AUDIO
    TITLE "I Got You Babe ('Good Times' Soundtrack Version)"
    PERFORMER "Sonny & Cher"
    INDEX 00 02:56:72
FILE "20 - I Got You Babe ('Good Times' Soundtrack Version).wav" WAVE
    INDEX 01 00:00:00
  TRACK 21 AUDIO
    TITLE "Hello"
    PERFORMER "Sonny & Cher"
    INDEX 00 02:16:60
FILE "21 - Hello.wav" WAVE
    INDEX 01 00:00:00


Этот торрент недоступен для скачивания без регистрации, однако доступен по публичной magnet-ссылке (источники с публичных трекеров). Перед использованием ссылки прочтите, пожалуйста Пользовательское соглашение, а также как можно дольше оставайтесь на раздаче! Для того, чтобы скачать сам торрент-файл (который видит больше источников), а также для того, чтобы поблагодарить релизера, вам необходимо зарегистрироваться. Если регистрироваться лень - вы можете также попробовать скачать релиз по нашим партнерским ссылкам ниже. Кроме того, зарегистрированным пользователям не показывается всплывающая реклама при скачивании.

[underverse.in].t106196.torrent
Трекер: Зарегистрирован   [ 11.06.2018 20:27 ]  

Статус: проверено (by Бишеп at 11.06.2018 20:29)
Поблагодарили: пока никто не поблагодарил...
Тип торрента: публичный - доступные источники с открытых трекеров: 
Размер: 323 MB (занимает 0,07 DVDR, для записи нужно 1 болванка DVDR/RW)
 
 
Похожие темы
Форум Тема Автор Торрент Отв. Посл. сооб.
Зарубежная Pop Музыка (Pop rock, Pop) Red Canzian - Testimone Del Tempo (2018) [MP3, 320 kbps] 90ytr90
3 | 0

0 | 487

2

18.02.2018 08:17

Зарубежный Hard, Progressive, Soft, Melodic, AOR, Folk, Classic Rock (Pop Rock, Christian) Housefires - We Say Yes (2017) [MP3, 320 kbps CBR] Darkferse
1 | 0

0 | 409

2

06.06.2017 10:20

Зарубежный Hard, Progressive, Soft, Melodic, AOR, Folk, Classic Rock (Pop Rock, Glam Rock, Synthpop) Sparks - Hippopotamus (2017) [MP3, 320 kbps CBR] Darkferse
2 | 0

0 | 924

5

13.09.2017 14:57

Зарубежный Hard, Progressive, Soft, Melodic, AOR, Folk, Classic Rock (Pop Rock, Britpop) Ben Brookes - The Motor Car & the Weather Balloon (2017) [MP3, 320 kbps CBR] Darkferse
0 | 0

0 | 325

1

03.01.2018 01:09

Зарубежная Поп Музыка (Lossless) (Pop Rock, Jazz) George Michael - Older (1996) [FLAC (Tracks+.Cue), Lossless] Бишеп
6 | 1

0 | 1554

9

07.11.2016 18:29

Зарубежная Поп Музыка (Lossless) (Pop Rock, Soft Rock) OneRepublic - Native (Deluxe Edition) (2013) [FLAC (Image+.CUE), Lossless] Бишеп
1 | 0

1 | 2371

14

03.11.2013 12:04

Зарубежная Поп Музыка (Lossless) (Pop Rock, Disco) Bee Gees - The Bee Gees' History (1985) [FLAC (Image+.CUE), Lossless] Бишеп
2 | 0

1 | 2279

17

03.11.2013 12:38

Зарубежная Поп Музыка (Lossless) (Pop Rock, Electronic) Falco - Golden Hits (1995) [FLAC (Tracks+.CUE), Lossless] Бишеп
3 | 0

0 | 2407

16

18.11.2013 07:19

Зарубежная Поп Музыка (Lossless) (Pop Rock, Euro House) Eros Ramazzotti & Cher - Piu Che Puoi (CD-Maxi) (2001) [FLAC (Image+.CUE), Lossless] Бишеп
0 | 0

0 | 2044

11

06.01.2014 13:43

Зарубежная Поп Музыка (Lossless) (Pop Rock, Soft Rock) Chris Isaak - Blue Hotel (CD-Maxi) (1991) [FLAC (Image+.CUE), Lossless] Бишеп
2 | 1

0 | 1484

12

12.01.2014 05:54


Яндекс.Метрика powered by Sphinx


В Н И М А Н И Е
Сайт не распространяет и не хранит электронные версии произведений, а лишь бесплатно и без коммерческой выгоды (не требуя взамен платы,
SMS и т.д.) предоставляет доступ к создаваемому пользователями каталогу ссылок на торрент-файлы, которые содержат только списки хеш-сумм.
Убедительная просьба с жалобами обращаться напрямую к пользователю, разместившему торрент файл.

Вверх