Loading...
Error

(Alternative Rock, Spoken Word) Пилот - Изолятор (2015) [FLAC (Tracks+.Cue), Lossless]

Статистика раздачи
Размер:  611 MB   |    Зарегистрирован:  3 месяца 8 дней   |    Скачан:  1 раз

Полного источника не было: 7 дней

Сидов:  0  |  0 KB/s  ]   Личеров:  0  |  0 KB/s  ]

* - сиды/пиры с внешних источников

   
 
Автор Сообщение

Бишеп Пол:Муж

15-Июн-2018 19:08

Пилот - Изолятор

Жанр: Alternative Rock, Spoken Word
Год выпуска: 2015
Источник: CD
Производитель диска: Kapkan Records - none, Восход - none
Аудиокодек: FLAC
Тип рипа: Tracks+.CUE
Битрейт аудио: lossless
Продолжительность: 01:11:49


Треклист:
01. Депрессия
02. В аду
03. Маниакальное состояние
04. Истерика
05. Рассеянный склероз
06. Грязь
07. Физофрения
08. Работа-волк
09. Маниакально-депрессивный психоз
10. Дитячая
11. Диссоциативное расстройство личности
12. Аутоджихад
13. Фобии
14. Собачья смерть
15. Старческое расстройство памяти
16. Кривда
17. Болезнь Альцгеймера
18. Рок-н-ролл для мужиков
19. Старческое слабоумие
20. Посёлок
21. Шизофазия
22. Олигофрения
23. Эпилепсия
24. Самахани
25. Псевдодеменция
26. Чёрный огр
27. По дороге в Небеса

Код:

Exact Audio Copy V1.1 from 23. June 2015

Отчёт EAC об извлечении, выполненном 22. сентября 2015, 17:39

Пилот / Изолятор

Дисковод: TSSTcorpCDDVDW SH-224DB   Adapter: 1  ID: 0

Режим чтения                 : Достоверность
Использование точного потока : Да
Отключение кэша аудио        : Да
Использование указателей C2  : Нет

Коррекция смещения при чтении                     : 6
Способность читать области Lead-in и Lead-out     : Нет
Заполнение пропущенных сэмплов тишиной            : Да
Удаление блоков с тишиной в начале и конце        : Нет
При вычислениях CRC использовались нулевые сэмплы : Да
Интерфейс                                         : Встроенный Win32-интерфейс для Win NT/2000
Обработка зазоров                                 : Добавлено к предыдущему треку

Выходной формат          : Пользовательский кодировщик
Выбранный битрейт        : 1024 kBit/s
Качество                 : Высокий
Добавление ID3-тега      : Нет
Утилита сжатия           : C:\Program Files (x86)\Exact Audio Copy\FLAC\FLAC.EXE
Дополнительные параметры : -6 -V -T "ARTIST=%artist%" -T "TITLE=%title%" -T "ALBUM=%albumtitle%" -T "DATE=%year%" -T "TRACKNUMBER=%tracknr%" -T "GENRE=%genre%" -T "COMMENT=%comment%" -T "BAND=%albuminterpret%" -T "ALBUMARTIST=%albuminterpret%" -T "COMPOSER=%composer%" %haslyrics%--tag-from-file=LYRICS="%lyricsfile%"%haslyrics% -T "DISCNUMBER=%cdnumber%" -T "TOTALDISCS=%totalcds%" -T "TOTALTRACKS=%numtracks%" %hascover%--picture="%coverfile%"%hascover% %source% -o %dest%

TOC извлечённого CD

     Трек |   Старт  | Длительность | Начальный сектор | Конечный сектор
    ---------------------------------------------------------------------
       1  |  0:00.00 |    1:02.59   |           0      |       4708     
       2  |  1:02.59 |    4:29.03   |        4709      |      24886     
       3  |  5:31.62 |    0:57.16   |       24887      |      29177     
       4  |  6:29.03 |    5:21.73   |       29178      |      53325     
       5  | 11:51.01 |    0:54.61   |       53326      |      57436     
       6  | 12:45.62 |    3:28.18   |       57437      |      73054     
       7  | 16:14.05 |    0:53.05   |       73055      |      77034     
       8  | 17:07.10 |    4:07.09   |       77035      |      95568     
       9  | 21:14.19 |    0:52.20   |       95569      |      99488     
      10  | 22:06.39 |    4:26.24   |       99489      |     119462     
      11  | 26:32.63 |    0:59.50   |      119463      |     123937     
      12  | 27:32.38 |    4:01.51   |      123938      |     142063     
      13  | 31:34.14 |    0:52.25   |      142064      |     145988     
      14  | 32:26.39 |    4:25.41   |      145989      |     165904     
      15  | 36:52.05 |    0:52.36   |      165905      |     169840     
      16  | 37:44.41 |    5:04.27   |      169841      |     192667     
      17  | 42:48.68 |    0:55.64   |      192668      |     196856     
      18  | 43:44.57 |    4:17.25   |      196857      |     216156     
      19  | 48:02.07 |    0:49.26   |      216157      |     219857     
      20  | 48:51.33 |    5:09.50   |      219858      |     243082     
      21  | 54:01.08 |    1:02.44   |      243083      |     247776     
      22  | 55:03.52 |    4:08.22   |      247777      |     266398     
      23  | 59:11.74 |    0:58.13   |      266399      |     270761     
      24  | 60:10.12 |    3:48.17   |      270762      |     287878     
      25  | 63:58.29 |    0:57.32   |      287879      |     292185     
      26  | 64:55.61 |    4:45.17   |      292186      |     313577     
      27  | 69:41.03 |    2:06.74   |      313578      |     323101     

Трек  1

     Имя файла D:\MUSIC\Пилот\Пилот - Изолятор (2015)\01. Депрессия.wav

     Длина предзазора  0:00:02.00

     Пиковый уровень 51.7 %
     Скорость извлечения 1.3 X
     Качество трека 100.0 %
     CRC теста D954778D
     CRC копии D954778D
     Копирование... OK

Трек  2

     Имя файла D:\MUSIC\Пилот\Пилот - Изолятор (2015)\02. В Аду.wav

     Пиковый уровень 97.9 %
     Скорость извлечения 2.0 X
     Качество трека 100.0 %
     CRC теста 8D7F7315
     CRC копии 8D7F7315
     Копирование... OK

Трек  3

     Имя файла D:\MUSIC\Пилот\Пилот - Изолятор (2015)\03. Маниакальное состояние.wav

     Пиковый уровень 97.9 %
     Скорость извлечения 3.6 X
     Качество трека 100.0 %
     CRC теста 510756BB
     CRC копии 510756BB
     Копирование... OK

Трек  4

     Имя файла D:\MUSIC\Пилот\Пилот - Изолятор (2015)\04. Истерика.wav

     Пиковый уровень 97.9 %
     Скорость извлечения 5.7 X
     Качество трека 100.0 %
     CRC теста A54D3FB7
     CRC копии A54D3FB7
     Копирование... OK

Трек  5

     Имя файла D:\MUSIC\Пилот\Пилот - Изолятор (2015)\05. Рассеянный склероз.wav

     Пиковый уровень 59.5 %
     Скорость извлечения 3.9 X
     Качество трека 100.0 %
     CRC теста CBB484F5
     CRC копии CBB484F5
     Копирование... OK

Трек  6

     Имя файла D:\MUSIC\Пилот\Пилот - Изолятор (2015)\06. Грязь.wav

     Пиковый уровень 97.9 %
     Скорость извлечения 5.9 X
     Качество трека 100.0 %
     CRC теста 145F9FE5
     CRC копии 145F9FE5
     Копирование... OK

Трек  7

     Имя файла D:\MUSIC\Пилот\Пилот - Изолятор (2015)\07. Физофрения.wav

     Пиковый уровень 77.6 %
     Скорость извлечения 4.2 X
     Качество трека 100.0 %
     CRC теста DFEB5278
     CRC копии DFEB5278
     Копирование... OK

Трек  8

     Имя файла D:\MUSIC\Пилот\Пилот - Изолятор (2015)\08. Работа-Волк.wav

     Пиковый уровень 97.9 %
     Скорость извлечения 6.4 X
     Качество трека 100.0 %
     CRC теста 8DB50000
     CRC копии 8DB50000
     Копирование... OK

Трек  9

     Имя файла D:\MUSIC\Пилот\Пилот - Изолятор (2015)\09. Маниакально-депрессивный психоз.wav

     Пиковый уровень 81.2 %
     Скорость извлечения 4.4 X
     Качество трека 100.0 %
     CRC теста 41267CFE
     CRC копии 41267CFE
     Копирование... OK

Трек 10

     Имя файла D:\MUSIC\Пилот\Пилот - Изолятор (2015)\10. Дитячая.wav

     Пиковый уровень 97.9 %
     Скорость извлечения 6.8 X
     Качество трека 100.0 %
     CRC теста FFF497B4
     CRC копии FFF497B4
     Копирование... OK

Трек 11

     Имя файла D:\MUSIC\Пилот\Пилот - Изолятор (2015)\11. Диссоциативное расстройство личности.wav

     Пиковый уровень 73.4 %
     Скорость извлечения 4.9 X
     Качество трека 100.0 %
     CRC теста 6C1EF1D9
     CRC копии 6C1EF1D9
     Копирование... OK

Трек 12

     Имя файла D:\MUSIC\Пилот\Пилот - Изолятор (2015)\12. Аутоджихад.wav

     Пиковый уровень 97.9 %
     Скорость извлечения 6.2 X
     Качество трека 99.9 %
     CRC теста F0D8F599
     CRC копии F0D8F599
     Копирование... OK

Трек 13

     Имя файла D:\MUSIC\Пилот\Пилот - Изолятор (2015)\13. Фобии.wav

     Пиковый уровень 97.8 %
     Скорость извлечения 4.7 X
     Качество трека 100.0 %
     CRC теста 91E5786D
     CRC копии 91E5786D
     Копирование... OK

Трек 14

     Имя файла D:\MUSIC\Пилот\Пилот - Изолятор (2015)\14. Собачья Смерть.wav

     Пиковый уровень 97.9 %
     Скорость извлечения 7.5 X
     Качество трека 100.0 %
     CRC теста 1F6EC98B
     CRC копии 1F6EC98B
     Копирование... OK

Трек 15

     Имя файла D:\MUSIC\Пилот\Пилот - Изолятор (2015)\15. Старческое расстройство памяти.wav

     Пиковый уровень 97.9 %
     Скорость извлечения 3.6 X
     Качество трека 99.7 %
     CRC теста 2B4B0310
     CRC копии 2B4B0310
     Копирование... OK

Трек 16

     Имя файла D:\MUSIC\Пилот\Пилот - Изолятор (2015)\16. Кривда.wav

     Пиковый уровень 97.9 %
     Скорость извлечения 8.0 X
     Качество трека 100.0 %
     CRC теста 644D4695
     CRC копии 644D4695
     Копирование... OK

Трек 17

     Имя файла D:\MUSIC\Пилот\Пилот - Изолятор (2015)\17. Болезнь альцгеймера.wav

     Пиковый уровень 97.9 %
     Скорость извлечения 5.3 X
     Качество трека 100.0 %
     CRC теста FB74E317
     CRC копии FB74E317
     Копирование... OK

Трек 18

     Имя файла D:\MUSIC\Пилот\Пилот - Изолятор (2015)\18. Рок-Н-Ролл Для Мужиков.wav

     Пиковый уровень 97.9 %
     Скорость извлечения 8.0 X
     Качество трека 100.0 %
     CRC теста 8A50FF0D
     CRC копии 8A50FF0D
     Копирование... OK

Трек 19

     Имя файла D:\MUSIC\Пилот\Пилот - Изолятор (2015)\19. Старческое слабоумие.wav

     Пиковый уровень 97.9 %
     Скорость извлечения 5.2 X
     Качество трека 100.0 %
     CRC теста F0F14770
     CRC копии F0F14770
     Копирование... OK

Трек 20

     Имя файла D:\MUSIC\Пилот\Пилот - Изолятор (2015)\20. Посёлок.wav

     Пиковый уровень 97.9 %
     Скорость извлечения 8.6 X
     Качество трека 100.0 %
     CRC теста 7C596BDE
     CRC копии 7C596BDE
     Копирование... OK

Трек 21

     Имя файла D:\MUSIC\Пилот\Пилот - Изолятор (2015)\21. Шизофазия.wav

     Пиковый уровень 97.9 %
     Скорость извлечения 5.9 X
     Качество трека 100.0 %
     CRC теста 323A4839
     CRC копии 323A4839
     Копирование... OK

Трек 22

     Имя файла D:\MUSIC\Пилот\Пилот - Изолятор (2015)\22. Олигофрения.wav

     Пиковый уровень 97.9 %
     Скорость извлечения 7.6 X
     Качество трека 99.9 %
     CRC теста 2B2C3965
     CRC копии 2B2C3965
     Копирование... OK

Трек 23

     Имя файла D:\MUSIC\Пилот\Пилот - Изолятор (2015)\23. Эпилепсия.wav

     Пиковый уровень 92.6 %
     Скорость извлечения 6.1 X
     Качество трека 100.0 %
     CRC теста 1D9C76FE
     CRC копии 1D9C76FE
     Копирование... OK

Трек 24

     Имя файла D:\MUSIC\Пилот\Пилот - Изолятор (2015)\24. Самахани.wav

     Пиковый уровень 97.9 %
     Скорость извлечения 8.7 X
     Качество трека 100.0 %
     CRC теста D1175F96
     CRC копии D1175F96
     Копирование... OK

Трек 25

     Имя файла D:\MUSIC\Пилот\Пилот - Изолятор (2015)\25. Псевдодеменция.wav

     Пиковый уровень 97.9 %
     Скорость извлечения 4.4 X
     Качество трека 99.8 %
     CRC теста 4B119DAD
     CRC копии 4B119DAD
     Копирование... OK

Трек 26

     Имя файла D:\MUSIC\Пилот\Пилот - Изолятор (2015)\26. Черный Огр.wav

     Пиковый уровень 97.9 %
     Скорость извлечения 9.2 X
     Качество трека 100.0 %
     CRC теста D14CACA2
     CRC копии D14CACA2
     Копирование... OK

Трек 27

     Имя файла D:\MUSIC\Пилот\Пилот - Изолятор (2015)\27. По дороге в Небеса.wav

     Пиковый уровень 79.8 %
     Скорость извлечения 8.1 X
     Качество трека 100.0 %
     CRC теста 8017CF26
     CRC копии 8017CF26
     Копирование... OK

Ошибок не произошло

Конец отчёта

==== Контрольная сумма отчёта 6E354B3B833FD46C007279D11FE3A52BF0A8F85F4C48D52B9DAE2484D82553D1 ====

Код:

REM GENRE Rock
REM DATE 2015
REM DISCID 9E10D41B
REM COMMENT "ExactAudioCopy v1.1"
PERFORMER "Пилот"
TITLE "Изолятор"
FILE "01. Депрессия.wav" WAVE
  TRACK 01 AUDIO
    TITLE "Депрессия"
    PERFORMER "Пилот"
    FLAGS DCP
    INDEX 01 00:00:00
FILE "02. В Аду.wav" WAVE
  TRACK 02 AUDIO
    TITLE "В Аду"
    PERFORMER "Пилот"
    FLAGS DCP
    INDEX 01 00:00:00
FILE "03. Маниакальное состояние.wav" WAVE
  TRACK 03 AUDIO
    TITLE "Маниакальное состояние"
    PERFORMER "Пилот"
    FLAGS DCP
    INDEX 01 00:00:00
FILE "04. Истерика.wav" WAVE
  TRACK 04 AUDIO
    TITLE "Истерика"
    PERFORMER "Пилот"
    FLAGS DCP
    INDEX 01 00:00:00
FILE "05. Рассеянный склероз.wav" WAVE
  TRACK 05 AUDIO
    TITLE "Рассеянный склероз"
    PERFORMER "Пилот"
    FLAGS DCP
    INDEX 01 00:00:00
FILE "06. Грязь.wav" WAVE
  TRACK 06 AUDIO
    TITLE "Грязь"
    PERFORMER "Пилот"
    FLAGS DCP
    INDEX 01 00:00:00
FILE "07. Физофрения.wav" WAVE
  TRACK 07 AUDIO
    TITLE "Физофрения"
    PERFORMER "Пилот"
    FLAGS DCP
    INDEX 01 00:00:00
FILE "08. Работа-Волк.wav" WAVE
  TRACK 08 AUDIO
    TITLE "Работа-Волк"
    PERFORMER "Пилот"
    FLAGS DCP
    INDEX 01 00:00:00
FILE "09. Маниакально-депрессивный психоз.wav" WAVE
  TRACK 09 AUDIO
    TITLE "Маниакально-депрессивный психоз"
    PERFORMER "Пилот"
    FLAGS DCP
    INDEX 01 00:00:00
FILE "10. Дитячая.wav" WAVE
  TRACK 10 AUDIO
    TITLE "Дитячая"
    PERFORMER "Пилот"
    FLAGS DCP
    INDEX 01 00:00:00
FILE "11. Диссоциативное расстройство личности.wav" WAVE
  TRACK 11 AUDIO
    TITLE "Диссоциативное расстройство личности"
    PERFORMER "Пилот"
    FLAGS DCP
    INDEX 01 00:00:00
FILE "12. Аутоджихад.wav" WAVE
  TRACK 12 AUDIO
    TITLE "Аутоджихад"
    PERFORMER "Пилот"
    FLAGS DCP
    INDEX 01 00:00:00
FILE "13. Фобии.wav" WAVE
  TRACK 13 AUDIO
    TITLE "Фобии"
    PERFORMER "Пилот"
    FLAGS DCP
    INDEX 01 00:00:00
FILE "14. Собачья Смерть.wav" WAVE
  TRACK 14 AUDIO
    TITLE "Собачья Смерть"
    PERFORMER "Пилот"
    FLAGS DCP
    INDEX 01 00:00:00
FILE "15. Старческое расстройство памяти.wav" WAVE
  TRACK 15 AUDIO
    TITLE "Старческое расстройство памяти"
    PERFORMER "Пилот"
    FLAGS DCP
    INDEX 01 00:00:00
FILE "16. Кривда.wav" WAVE
  TRACK 16 AUDIO
    TITLE "Кривда"
    PERFORMER "Пилот"
    FLAGS DCP
    INDEX 01 00:00:00
FILE "17. Болезнь альцгеймера.wav" WAVE
  TRACK 17 AUDIO
    TITLE "Болезнь альцгеймера"
    PERFORMER "Пилот"
    FLAGS DCP
    INDEX 01 00:00:00
FILE "18. Рок-Н-Ролл Для Мужиков.wav" WAVE
  TRACK 18 AUDIO
    TITLE "Рок-Н-Ролл Для Мужиков"
    PERFORMER "Пилот"
    FLAGS DCP
    INDEX 01 00:00:00
FILE "19. Старческое слабоумие.wav" WAVE
  TRACK 19 AUDIO
    TITLE "Старческое слабоумие"
    PERFORMER "Пилот"
    FLAGS DCP
    INDEX 01 00:00:00
FILE "20. Посёлок.wav" WAVE
  TRACK 20 AUDIO
    TITLE "Посёлок"
    PERFORMER "Пилот"
    FLAGS DCP
    INDEX 01 00:00:00
FILE "21. Шизофазия.wav" WAVE
  TRACK 21 AUDIO
    TITLE "Шизофазия"
    PERFORMER "Пилот"
    FLAGS DCP
    INDEX 01 00:00:00
FILE "22. Олигофрения.wav" WAVE
  TRACK 22 AUDIO
    TITLE "Олигофрения"
    PERFORMER "Пилот"
    FLAGS DCP
    INDEX 01 00:00:00
FILE "23. Эпилепсия.wav" WAVE
  TRACK 23 AUDIO
    TITLE "Эпилепсия"
    PERFORMER "Пилот"
    FLAGS DCP
    INDEX 01 00:00:00
FILE "24. Самахани.wav" WAVE
  TRACK 24 AUDIO
    TITLE "Самахани"
    PERFORMER "Пилот"
    FLAGS DCP
    INDEX 01 00:00:00
FILE "25. Псевдодеменция.wav" WAVE
  TRACK 25 AUDIO
    TITLE "Псевдодеменция"
    PERFORMER "Пилот"
    FLAGS DCP
    INDEX 01 00:00:00
FILE "26. Черный Огр.wav" WAVE
  TRACK 26 AUDIO
    TITLE "Черный Огр"
    PERFORMER "Пилот"
    FLAGS DCP
    INDEX 01 00:00:00
FILE "27. По дороге в Небеса.wav" WAVE
  TRACK 27 AUDIO
    TITLE "По дороге в Небеса"
    PERFORMER "Пилот"
    FLAGS DCP
    INDEX 01 00:00:00


Этот торрент недоступен для скачивания без регистрации, однако доступен по публичной magnet-ссылке (источники с публичных трекеров). Перед использованием ссылки прочтите, пожалуйста Пользовательское соглашение, а также как можно дольше оставайтесь на раздаче! Для того, чтобы скачать сам торрент-файл (который видит больше источников), а также для того, чтобы поблагодарить релизера, вам необходимо зарегистрироваться. Если регистрироваться лень - вы можете также попробовать скачать релиз по нашим партнерским ссылкам ниже. Кроме того, зарегистрированным пользователям не показывается всплывающая реклама при скачивании.

[underverse.in].t106426.torrent
Трекер: Зарегистрирован   [ 15.06.2018 19:08 ]  

Статус: проверено (by Бишеп at 15.06.2018 19:08)
Поблагодарили: пока никто не поблагодарил...
Тип торрента: публичный - доступные источники с открытых трекеров: 
Размер: 611 MB (занимает 0,14 DVDR, для записи нужно 1 болванка DVDR/RW)
 
 
Похожие темы
Форум Тема Автор Торрент Отв. Посл. сооб.
Зарубежная Pop Музыка (Alternative Pop, Neo Soul, Indie) Amanda Jenssen - Sanger fran on (2015) [MP3, 320 kbps] 90ytr90
1 | 0

0 | 1212

3

23.03.2015 19:02

Зарубежная Pop Музыка (Alternative, Indie) Anna of the North - Lovers (2017) [MP3, 320 kbps CBR] Darkferse
3 | 0

0 | 867

4

13.09.2017 08:47

Зарубежная Pop Музыка (Alternative, Pop, Soul) Plan B - Heaven Before All Hell Breaks Loose (2018) [MP3, 320 kbps CBR] 90ytr90
35 | 0

0 | 353

3

03.06.2018 05:52

Зарубежный Hard, Progressive, Soft, Melodic, AOR, Folk, Classic Rock (Alternative Rock / Progressive Rock) Muse - The 2nd Law (2012) [MP3, 320 kbps] Jimmy
0 | 0

0 | 1429

13

27.09.2012 04:30

Зарубежный Black, Death, Heavy, Thrash, Power, Folk, Gothic Metal (Alternative Metal) This Tragic Day - This Tragic Day (2012) [MP3, 320 kbps] NiiggazCPT
1 | 0

0 | 1597

4

28.10.2012 07:21

Зарубежный Punk, Hardcore, Grunge, Alternative (Alternative) Green Day - Greatest Hits: God's Favorite Band (2017) [iTunes AAC M4A, 256 kbps VBR] Web garry
1 | 0

5 | 3953

1

04.02.2010 17:52

Зарубежный Punk, Hardcore, Grunge, Alternative (Alternative) Red Hot Chili Peppers - Greatest Hits (2003) [iTunes AAC M4A, 256 kbps VBR] Web garry
2 | 0

0 | 2253

3

02.06.2009 18:51

Зарубежный Punk, Hardcore, Grunge, Alternative (Alternative) The Killers - Discography (2004-2013) [iTunes AAC M4A, 256 kbps VBR] Web garry
23 | 14

0 | 6650

4

20.06.2009 12:07

Зарубежный Punk, Hardcore, Grunge, Alternative (Alternative, Pop-Punk, Female Vocal) We Are the In Crowd - Weird Kids [Deluxe Edition] (2014) [MP3, 320 kbps] Jimmy
1 | 0

0 | 1248

3

23.04.2014 15:58

Зарубежный Punk, Hardcore, Grunge, Alternative (Alternative, Pop Punk, Emo) Fireworks - (Oh), Common Life (2014) [MP3, 320 kbps] Jimmy
0 | 1

0 | 1043

4

23.04.2014 15:55


Яндекс.Метрика powered by Sphinx


В Н И М А Н И Е
Сайт не распространяет и не хранит электронные версии произведений, а лишь бесплатно и без коммерческой выгоды (не требуя взамен платы,
SMS и т.д.) предоставляет доступ к создаваемому пользователями каталогу ссылок на торрент-файлы, которые содержат только списки хеш-сумм.
Убедительная просьба с жалобами обращаться напрямую к пользователю, разместившему торрент файл.

Вверх