Loading...
Error

(Rock, Blues Rock) Dire Straits - Альбомная дискография [Original UK and USA issues] [7LP] (1978-1991) [FLAC (tracks), lossless] Vinyl

Статистика раздачи
Размер:  6,01 GB   |    Зарегистрирован:  2 месяца 25 дней   |    Скачан:  3 раза
Сидов:  1  |  72 KB/s  ]   Личеров:  0  |  0 KB/s  ]

* - сиды/пиры с внешних источников

   
 
Автор Сообщение

romeoexpert Пол:Муж

29-Июн-2018 06:52

Dire Straits - Альбомная дискография

Жанр: Rock, Blues Rock
Носитель: Vinyl
Год выпуска: 1978-1991
Лейблы: Vertigo, Warner Bros. Records
Страны-производители: UK, USA

Аудиокодек: FLAC (*.flac)
Тип рипа: tracks
Формат записи: 32/96
Формат раздачи: 24/96
Продолжительность: 05:14:36
Наличие сканов в содержимом раздачи: нет

Источник: The Badger's Den
Треклист:

[01] Down To The Waterline [04:03]
[02] Water Of Love [05:28]
[03] Setting Me Up [03:22]
[04] Six Blade Knife [04:14]
[05] Southbound Again [03:01]
[06] Sultans Of Swing [05:51]
[07] In The Gallery [06:18]
[08] Wild West End [04:43]
[09] Lions [05:05]

Продолжительность: 00:42:04
Источник оцифровки: третье лицо
Код класса состояния винила: Ex
Обработка: ручное удаление щелчков

DRESSED TO THE NINES LINEAGE

VPI Scoutmaster with dual belt driven single flywheel motor on Herbie's Tenderfeet

Trans-Fi Terminator T3 Pro With Tomahawk Armwand (4N Silver Shielded Wire)

Audio-Technica ART-9

Phoenix Engineering Eagle
Phoenix Engineering RoadRunner
Gingko Cloud 12A Vibration Control Platform
Eden Sound Terrastone Footers

Parks Audio Budgie Hybrid Tube Phono Preamp with 1964 Amperex 7308 Tubes
Parks Audio Budgie TEN SUT
RME ADI-2 ADC
Tripp Lite Smart Online SU1500RTXLCD2U Double-Conversion UPS

PBTHAL | Feb 2018
[pre]
foobar2000 1.3.17 / Dynamic Range Meter 1.1.1
log date: 2018-06-18 13:50:42

--------------------------------------------------------------------------------
Analyzed: Dire Straits / Dire Straits
--------------------------------------------------------------------------------

DR Peak RMS Duration Track
--------------------------------------------------------------------------------
DR13 -0.76 dB -16.67 dB 4:03 01-Down To The Waterline
DR12 -0.70 dB -15.60 dB 5:28 02-Water Of Love
DR13 -1.77 dB -16.48 dB 3:22 03-Setting Me Up
DR15 -0.98 dB -18.13 dB 4:14 04-Six Blade Knife
DR14 -1.59 dB -17.96 dB 3:01 05-Southbound Again
DR12 -1.65 dB -15.33 dB 5:51 06-Sultans Of Swing
DR14 -0.74 dB -17.11 dB 6:18 07-In The Gallery
DR13 -1.14 dB -17.63 dB 4:43 08-Wild West End
DR14 -2.43 dB -17.93 dB 5:05 09-Lions
--------------------------------------------------------------------------------

Number of tracks: 9
Official DR value: DR13

Samplerate: 96000 Hz
Channels: 2
Bits per sample: 24
Bitrate: 2802 kbps
Codec: FLAC
================================================================================
[/pre]

Треклист:

[01] Once Upon A Time In The West [05:26]
[02] News [04:14]
[03] Where Do You Think You're Going? [03:50]
[04] Communiqué [05:52]
[05] Lady Writer [03:47]
[06] Angel Of Mercy [04:37]
[07] Portobello Belle [04:31]
[08] Single-Handed Sailor [04:38]
[09] Follow Me Home [06:00]

Продолжительность: 00:42:55
Источник оцифровки: третье лицо
Код класса состояния винила: Ex
Обработка: ручное удаление щелчков

DRESSED TO THE NINES LINEAGE

VPI Scoutmaster with dual belt driven single flywheel motor on Herbie's Tenderfeet

Trans-Fi Terminator T3 Pro With Tomahawk Armwand (4N Silver Shielded Wire)

Audio-Technica ART-9

Phoenix Engineering Eagle
Phoenix Engineering RoadRunner
Gingko Cloud 12A Vibration Control Platform
Eden Sound Terrastone Footers

Parks Audio Budgie Tube Phono Preamp with 1964 Amperex 7308 Tubes
Parks Audio Budgie TEN SUT
RME ADI-2 ADC
Tripp Lite Smart Online SU1500RTXLCD2U Double-Conversion UPS

PBTHAL | Dec 2017
[pre]
foobar2000 1.3.17 / Dynamic Range Meter 1.1.1
log date: 2018-06-18 13:55:40

--------------------------------------------------------------------------------
Analyzed: Dire Straits / CommuniquГ©
--------------------------------------------------------------------------------

DR Peak RMS Duration Track
--------------------------------------------------------------------------------
DR14 -1.32 dB -17.50 dB 5:26 01-Once Upon A Time In The West
DR13 -1.36 dB -18.19 dB 4:14 02-News
DR14 -0.70 dB -19.18 dB 3:50 03-Where Do You Think You're Going?
DR15 -1.23 dB -19.22 dB 5:52 04-Communiqué
DR13 -0.70 dB -16.10 dB 3:47 05-Lady Writer
DR11 -2.46 dB -16.63 dB 4:37 06-Angel Of Mercy
DR15 -1.44 dB -18.81 dB 4:31 07-Portobello Belle
DR13 -0.89 dB -16.29 dB 4:38 08-Single-Handed Sailor
DR13 -4.14 dB -20.94 dB 6:00 09-Follow Me Home
--------------------------------------------------------------------------------

Number of tracks: 9
Official DR value: DR13

Samplerate: 96000 Hz
Channels: 2
Bits per sample: 24
Bitrate: 2506 kbps
Codec: FLAC
================================================================================
[/pre]

Треклист:

[01] Tunnel Of Love [08:12]
[02] Romeo And Juliet [06:04]
[03] Skateaway [06:39]
[04] Expresso Love [05:12]
[05] Hand In Hand [04:49]
[06] Solid Rock [03:28]
[07] Les Boys [04:10]

Продолжительность: 00:38:34
Источник оцифровки: третье лицо
Код класса состояния винила: Ex
Обработка: ручное удаление щелчков

ANSWER TO THE BUDGIE LINEAGE

VPI Scoutmaster with thread driven single flywheel motor

Trans-Fi Terminator T3 Pro With Tomahawk Armwand (4N Silver Shielded Wire)

Soundsmith Zephyr MIMC

Phoenix Engineering Eagle
Phoenix Engineering RoadRunner
Gingko Cloud 12A Vibration Control Platform
Eden Sound Terrastone Footers

Parks Audio Budgie Tube Phono Preamp with 1965 Telefunken E88CC/6922 Cryo Treated Tubes
Parks Audio Budgie TEN SUT
RME ADI-2 ADC
Tripp Lite Smart Online SU1500RTXLCD2U Double-Conversion UPS

PBTHAL | Jun 2017
[pre]
foobar2000 1.3.17 / Dynamic Range Meter 1.1.1
log date: 2018-06-18 13:56:25

--------------------------------------------------------------------------------
Analyzed: Dire Straits / Making Movies
--------------------------------------------------------------------------------

DR Peak RMS Duration Track
--------------------------------------------------------------------------------
DR14 -1.95 dB -19.76 dB 8:12 01-Tunnel Of Love
DR16 -0.70 dB -22.99 dB 6:04 02-Romeo And Juliet
DR14 -2.37 dB -20.12 dB 6:39 03-Skateaway
DR14 -1.74 dB -18.78 dB 5:12 04-Expresso Love
DR15 -1.83 dB -21.56 dB 4:49 05-Hand In Hand
DR14 -1.57 dB -17.57 dB 3:28 06-Solid Rock
DR15 -2.76 dB -21.38 dB 4:10 07-Les Boys
--------------------------------------------------------------------------------

Number of tracks: 7
Official DR value: DR15

Samplerate: 96000 Hz
Channels: 2
Bits per sample: 24
Bitrate: 2566 kbps
Codec: FLAC
================================================================================
[/pre]

Треклист:

[01] Telegraph Road [14:17]
[02] Private Investigations [07:08]
[03] Industrial Disease [05:53]
[04] Love Over Gold [06:21]
[05] It Never Rains [08:04]

Продолжительность: 00:41:43
Источник оцифровки: третье лицо
Код класса состояния винила: Ex
Обработка: ручное удаление щелчков

DRESSED TO THE NINES LINEAGE

VPI Scoutmaster with dual belt driven single flywheel motor on Herbie's Tenderfeet

Trans-Fi Terminator T3 Pro With Tomahawk Armwand (4N Silver Shielded Wire)

Audio-Technica ART-9

Phoenix Engineering Eagle
Phoenix Engineering RoadRunner
Gingko Cloud 12A Vibration Control Platform
Eden Sound Terrastone Footers

Parks Audio Budgie Hybrid Tube Phono Preamp with 1964 Amperex 7308 Tubes
Parks Audio Budgie TEN SUT
RME ADI-2 ADC
Tripp Lite Smart Online SU1500RTXLCD2U Double-Conversion UPS

PBTHAL | Apr 2018
[pre]
foobar2000 1.3.17 / Dynamic Range Meter 1.1.1
log date: 2018-06-18 13:57:13

--------------------------------------------------------------------------------
Analyzed: Dire Straits / Love Over Gold
--------------------------------------------------------------------------------

DR Peak RMS Duration Track
--------------------------------------------------------------------------------
DR13 -1.14 dB -19.70 dB 14:17 01-Telegraph Road
DR18 -4.82 dB -28.17 dB 7:08 02-Private Investigations
DR13 -2.66 dB -18.44 dB 5:53 03-Industrial Disease
DR14 -3.07 dB -22.58 dB 6:21 04-Love Over Gold
DR12 -3.80 dB -20.45 dB 8:04 05-It Never Rains
--------------------------------------------------------------------------------

Number of tracks: 5
Official DR value: DR14

Samplerate: 96000 Hz
Channels: 2
Bits per sample: 24
Bitrate: 2761 kbps
Codec: FLAC
================================================================================
[/pre]
Треклист:

[01] Telegraph Road [14:22]
[02] Private Investigations [06:50]
[03] Industrial Disease [05:54]
[04] Love Over Gold [06:23]
[05] It Never Rains [08:00]

Продолжительность: 00:41:29
Источник оцифровки: третье лицо
Код класса состояния винила: Ex
Обработка: ручное удаление щелчков

ANSWER TO THE BUDGIE LINEAGE

VPI Scoutmaster with thread driven single flywheel motor

Trans-Fi Terminator T3 Pro With Tomahawk Armwand (4N Silver Shielded Wire)

Soundsmith Zephyr MIMC

Phoenix Engineering Eagle
Phoenix Engineering RoadRunner
Gingko Cloud 12A Vibration Control Platform
Eden Sound Terrastone Footers

Parks Audio Budgie Tube Phono Preamp with 1965 Telefunken E88CC/6922 Cryo Treated Tubes
Parks Audio Budgie TEN SUT
RME ADI-2 ADC
Tripp Lite Smart Online SU1500RTXLCD2U Double-Conversion UPS

PBTHAL | Jun 2017
[pre]
foobar2000 1.3.17 / Dynamic Range Meter 1.1.1
log date: 2018-06-18 13:58:01

--------------------------------------------------------------------------------
Analyzed: Dire Straits / Love Over Gold
--------------------------------------------------------------------------------

DR Peak RMS Duration Track
--------------------------------------------------------------------------------
DR14 -0.70 dB -20.07 dB 14:22 01-Telegraph Road
DR19 -4.78 dB -28.79 dB 6:50 02-Private Investigations
DR14 -2.45 dB -18.63 dB 5:54 03-Industrial Disease
DR14 -3.29 dB -23.20 dB 6:23 04-Love Over Gold
DR12 -3.70 dB -20.50 dB 8:00 05-It Never Rains
--------------------------------------------------------------------------------

Number of tracks: 5
Official DR value: DR14

Samplerate: 96000 Hz
Channels: 2
Bits per sample: 24
Bitrate: 2629 kbps
Codec: FLAC
================================================================================
[/pre]

Треклист:

[01] So Far Away [04:03]
[02] Money For Nothing [07:01]
[03] Walk Of Life [04:09]
[04] Your Latest Trick [04:39]
[05] Why Worry [05:22]
[06] Ride Across The River [06:58]
[07] The Man's Too Strong [04:40]
[08] One World [03:40]
[09] Brothers In Arms [06:58]

Продолжительность: 00:47:30
Источник оцифровки: третье лицо
Код класса состояния винила: Ex
Обработка: ручное удаление щелчков

ANSWER TO THE BUDGIE LINEAGE

VPI Scoutmaster with thread driven single flywheel motor

Trans-Fi Terminator T3 Pro With Tomahawk Armwand (4N Silver Shielded Wire)

Nude Ortofon Quintet Black S

Phoenix Engineering Eagle
Phoenix Engineering RoadRunner
Gingko Cloud 12A Vibration Control Platform
Eden Sound Terrastone Footers

Parks Audio Budgie Tube Phono Preamp with 1964 Amperex 7308 Tubes
Parks Audio Budgie CM1254 SUT
RME ADI-2 ADC
Tripp Lite Smart Online SU1500RTXLCD2U Double-Conversion UPS

PBTHAL | Mar 2017
[pre]
foobar2000 1.3.17 / Dynamic Range Meter 1.1.1
log date: 2018-06-18 13:58:55

--------------------------------------------------------------------------------
Analyzed: Dire Straits / Brothers In Arms
--------------------------------------------------------------------------------

DR Peak RMS Duration Track
--------------------------------------------------------------------------------
DR16 -1.55 dB -20.97 dB 4:03 01-So Far Away
DR16 -0.70 dB -21.00 dB 7:01 02-Money For Nothing
DR13 -5.16 dB -21.28 dB 4:09 03-Walk Of Life
DR14 -6.41 dB -24.58 dB 4:39 04-Your Latest Trick
DR12 -10.65 dB -26.65 dB 5:22 05-Why Worry
DR16 -2.89 dB -21.92 dB 6:58 06-Ride Across The River
DR14 -2.70 dB -21.61 dB 4:40 07-The Man's Too Strong
DR16 -2.23 dB -20.05 dB 3:40 08-One World
DR13 -7.28 dB -24.09 dB 6:58 09-Brothers In Arms
--------------------------------------------------------------------------------

Number of tracks: 9
Official DR value: DR14

Samplerate: 96000 Hz
Channels: 2
Bits per sample: 24
Bitrate: 2536 kbps
Codec: FLAC
================================================================================
[/pre]

Треклист:

[01] Calling Elvis [06:26]
[02] On Every Street [05:05]
[03] When It Comes To You [05:01]
[04] Fade To Black [03:50]
[05] The Bug [04:18]
[06] You And Your Friend [05:59]
[07] Heavy Fuel [04:55]
[08] Iron Hand [03:10]
[09] Ticket To Heaven [04:26]
[10] My Parties [05:33]
[11] Planet Of New Orleans [07:47]
[12] How Long [03:53]

Продолжительность: 01:00:22
Источник оцифровки: третье лицо
Код класса состояния винила: Ex
Обработка: ручное удаление щелчков

ANSWER TO THE BUDGIE LINEAGE

VPI Scoutmaster with thread driven single flywheel motor

Trans-Fi Terminator T3 Pro With Tomahawk Armwand (4N Silver Shielded Wire)

Nude Ortofon Quintet Black S

Phoenix Engineering Eagle
Phoenix Engineering RoadRunner
Gingko Cloud 12A Vibration Control Platform
Eden Sound Terrastone Footers

Parks Audio Budgie Tube Phono Preamp with 1964 Amperex 7308 Tubes
Parks Audio Budgie CM1254 SUT
RME ADI-2 ADC
Tripp Lite Smart Online SU1500RTXLCD2U Double-Conversion UPS

PBTHAL | Mar 2017
[pre]
foobar2000 1.3.17 / Dynamic Range Meter 1.1.1
log date: 2018-06-18 13:59:55

--------------------------------------------------------------------------------
Analyzed: Dire Straits / On Every Street
--------------------------------------------------------------------------------

DR Peak RMS Duration Track
--------------------------------------------------------------------------------
DR14 -0.77 dB -18.21 dB 6:26 01-Calling Elvis
DR14 -0.85 dB -20.77 dB 5:05 02-On Every Street
DR14 -1.99 dB -17.97 dB 5:01 03-When It Comes To You
DR11 -6.08 dB -19.88 dB 3:50 04-Fade To Black
DR13 -1.09 dB -16.02 dB 4:18 05-The Bug
DR13 -0.70 dB -18.29 dB 5:59 06-You And Your Friend
DR12 -2.41 dB -16.08 dB 4:55 07-Heavy Fuel
DR13 -1.25 dB -17.18 dB 3:10 08-Iron Hand
DR12 -2.99 dB -16.93 dB 4:26 09-Ticket To Heaven
DR15 -1.37 dB -19.55 dB 5:33 10-My Parties
DR13 -0.98 dB -18.21 dB 7:47 11-Planet Of New Orleans
DR12 -2.57 dB -16.89 dB 3:53 12-How Long
--------------------------------------------------------------------------------

Number of tracks: 12
Official DR value: DR13

Samplerate: 96000 Hz
Channels: 2
Bits per sample: 24
Bitrate: 2759 kbps
Codec: FLAC
================================================================================
[/pre]

Этот торрент недоступен для скачивания без регистрации, однако доступен по публичной magnet-ссылке (источники с публичных трекеров). Перед использованием ссылки прочтите, пожалуйста Пользовательское соглашение, а также как можно дольше оставайтесь на раздаче! Для того, чтобы скачать сам торрент-файл (который видит больше источников), а также для того, чтобы поблагодарить релизера, вам необходимо зарегистрироваться. Если регистрироваться лень - вы можете также попробовать скачать релиз по нашим партнерским ссылкам ниже. Кроме того, зарегистрированным пользователям не показывается всплывающая реклама при скачивании.

[underverse.in].t107340.torrent
Трекер: Зарегистрирован   [ 29.06.2018 06:52 ]  

Статус: проверено (by Darkferse at 29.06.2018 08:03)
Поблагодарили: 2 человека
Тип торрента: публичный - доступные источники с открытых трекеров: 
Размер: 6,01 GB (занимает 1,37 DVDR, для записи нужно 2 болванки DVDR/RW)
 
 
Похожие темы
Форум Тема Автор Торрент Отв. Посл. сооб.
Зарубежный Hard, Progressive, Soft, Melodic, AOR, Folk, Classic Rock (Rock, Blues Rock) Captain Ivory - No Vacancy (2016) [MP3, 320 kbps] ANDRAKO
0 | 0

0 | 612

2

26.12.2016 17:41

Зарубежный Hard, Progressive, Soft, Melodic, AOR, Folk, Classic Rock (Rock, Blues, Psychedelic Rock) Porno Wolves - Renegades (2017) [MP3, 320 kbps CBR] Darkferse
0 | 0

0 | 985

3

30.08.2017 17:39

Зарубежный Hard, Progressive, Soft, Melodic, AOR, Folk, Classic Rock (Rock, Blues, Funk) Jim Shaneberger Band - Above And Below (2017) [MP3, 320 kbps CBR] Darkferse
1 | 0

0 | 309

1

01.01.2018 15:37

Зарубежный Hard, Progressive, Soft, Melodic, AOR, Folk, Classic Rock (Rock, Blues) Eric Johnson - Collage (2017) [MP3, 320 kbps CBR] Darkferse
6 | 2

0 | 701

3

04.01.2018 00:55

Зарубежный Hard, Progressive, Melodic, AOR (Lossless) (Rock, Blues Rock, Psychedelic Rock) Gary Moore - Blues For Jimi (2012) [FLAC (Tracks+.Cue), Lossless] Бишеп
6 | 3

0 | 770

3

15.11.2016 17:04

Зарубежный Hard, Progressive, Melodic, AOR (Lossless) (Rock, Blues) Jimmy Page & Robert Plant - No Quarter (1994) FLAC (Image+.CUE), Lossless] Бишеп
13 | 0

0 | 1977

15

04.07.2013 12:22

Зарубежный Hard, Progressive, Melodic, AOR (Lossless) (Rock, Blues Rock) Paul Rodgers - The Royal Sessions (2014) [FLAC (Image+.CUE), Lossless] Бишеп
2 | 0

0 | 1037

9

09.03.2014 15:44

Зарубежный Hard, Progressive, Melodic, AOR (Lossless) (Rock, Blues Rock) Maggie Bell - Queen Of The Night (2006) [APE (Image+.CUE), Lossless] Бишеп
2 | 0

0 | 751

3

08.05.2014 06:24

Зарубежный Hard, Progressive, Melodic, AOR (Lossless) (Rock, Blues Rock, Garage Rock) Penrose – Circe (2013) [FLAC (Tracks), Lossless] (WEB) Бишеп
1 | 0

0 | 926

2

11.11.2014 16:24

Зарубежный Hard, Progressive, Melodic, AOR (Lossless) (Rock, Blues) Wilko Johnson & Roger Daltrey - Going Back Home (2014) [FLAC (Image+.CUE), Lossless] Бишеп
0 | 0

0 | 867

4

02.02.2015 15:08


Яндекс.Метрика powered by Sphinx


В Н И М А Н И Е
Сайт не распространяет и не хранит электронные версии произведений, а лишь бесплатно и без коммерческой выгоды (не требуя взамен платы,
SMS и т.д.) предоставляет доступ к создаваемому пользователями каталогу ссылок на торрент-файлы, которые содержат только списки хеш-сумм.
Убедительная просьба с жалобами обращаться напрямую к пользователю, разместившему торрент файл.

Вверх