Loading...
Error

Время новостей Донбасса (22 выпусков, 2-31 июля) [2018 г., информационно-аналитическая программа, новости, DVB]

Статистика раздачи
Размер:  4,81 GB   |    Зарегистрирован:  2 месяца 21 день   |    Скачан:  2 раза

Полного источника не было: 1 месяц 29 дней

Сидов:  0  |  0 KB/s  ]   Личеров:  0  |  0 KB/s  ]

* - сиды/пиры с внешних источников

   
 
Автор Сообщение

ARI71 Пол:Муж

05-Июл-2018 15:07

Время новостей Донбасса (22 выпусков, 2-31 июля)


Год выпуска: 2018
Жанр: информационно-аналитическая программа, новости
Страна: Украина телеканал "Донбас"
Ведущий: Сергей Грунов, Ольга Шиян
Сюжет фильма:
Уникальное видео и наиболее важная информация! «Время новостей Донбасса» ежедневно показывает то, что жители региона обсуждают потом неделями. Нас смотрят телезрители Донецкой и Луганской областей, а цитируют интернет-издания всей Украины. «Время новостей Донбасса» - единственная в регионе программа, журналисты которой информируют население в прямых включениях с места события. Мы делаем лучшие региональные новости. Это доказывают рейтинги и признали эксперты Национальной телевизионной премии «Телетриумф-2012». «Время новостей Донбасса» - это результат успешного сотрудничества журналистов и телезрителей.
Качество видео: DVB

Продолжительность: 22 х ~00:15:00
Формат: TS
Видео: MPEG-4 AVC, 720x576@785x576, 1747 kbps
Аудио: русский, MP2 (mono), 128 kbps

Доп. информация: Скриншоты анаморфированные - (785x576)
Программа телеканала "Донбас", на время ООС местом нахождения телерадиокомпании определен город Краматорск. Программа на русском языке, но украинская речь присутствует. Время в списке выпусков указано киевское.
------------
Раздача ведется путем добавления новых выпусков.
При каждом добавлении создаётся новый торрент. Чтобы начать докачку нового выпуска, пользователям необходимо сделать следующее:
● остановить скачивание;
● удалить старый торрент у себя из клиента (старые выпуски удалять не надо);
● скачать новый торрент и запустить его у себя в клиенте вместо старого, при этом указать клиенту путь в старую папку, куда и должно происходить скачивание новых выпусков;
● ваш клиент при запуске должен произвести хеширование (проверку) старой папки (если не производит сам - помогите ему сделать это), и будет докачивать только те выпуски, которых у вас ещё нет. Старые выпуски при этом не удаляются, а продолжают раздаваться!
● Eсли вы уже удалили старые выпуски, то предотвратить повторную закачку старых выпусков можно, отжав галочку в соответсвующих местах при запуске нового торрента.

Код:

Общее
Идентификатор : 1 (0x1)
Полное имя : D:\Время новостей Донбасса. Июль 2018\[2018-07-02 18-00] Час новин Донбасу.ts
Формат : MPEG-TS
Размер файла : 223 Мбайт
Продолжительность : 15 м. 47 с.
Режим общего битрейта : Переменный
Общий поток : 1974 Кбит/сек

Видео
Идентификатор : 6651 (0x19FB)
Идентификатор меню : 1 (0x1)
Формат : AVC
Формат/Информация : Advanced Video Codec
Профиль формата : Main@L3
Настройки формата : CABAC / 4 Ref Frames
Параметр CABAC формата : Да
Параметр RefFrames формата : 4 кадра
Параметр GOP формата : M=3, N=24
Идентификатор кодека : 27
Продолжительность : 15 м. 47 с.
Битрейт : 1747 Кбит/сек
Ширина : 720 пикселей
Высота : 576 пикселей
Соотношение сторон : 4:3
Частота кадров : 25,000 кадров/сек
Стандарт вещания : PAL
Цветовое пространство : YUV
Субдискретизация насыщенности : 4:2:0
Битовая глубина : 8 бит
Тип развёртки : MBAFF
Метод сохранения типа развёртки : Чередующиеся поля
Порядок развёртки : Верхнее поле первое
Бит/(Пиксели*Кадры) : 0.169
Размер потока : 197 Мбайт (89%)
Цветовой диапазон : Limited

Аудио
Идентификатор : 6653 (0x19FD)
Идентификатор меню : 1 (0x1)
Формат : MPEG Audio
Версия формата : Version 1
Профиль формата : Layer 2
Идентификатор кодека : 3
Продолжительность : 15 м. 47 с.
Вид битрейта : Постоянный
Битрейт : 128 Кбит/сек
Каналы : 1 канал
Частота : 48,0 КГц
Частота кадров : 41,667 кадра/сек (1152 SPF)
Метод сжатия : С потерями
Размер потока : 14,5 Мбайт (6%)
Язык : Ukrainian
1. 2 июля 2018 года (18:00)
2. 3 июля 2018 года (18:00)
3. 4 июля 2018 года (18:00)
4. 5 июля 2018 года (18:00)
5. 6 июля 2018 года (18:00)
6. 9 июля 2018 года (18:00)
7. 10 июля 2018 года (18:00)
8. 11 июля 2018 года (18:00)
9. 12 июля 2018 года (18:00)
10. 13 июля 2018 года (18:00)
11. 16 июля 2018 года (18:00)
12. 17 июля 2018 года (18:00)
13. 18 июля 2018 года (18:00)
14. 19 июля 2018 года (18:00)
15. 20 июля 2018 года (18:00)
16. 23 июля 2018 года (18:00)
17. 24 июля 2018 года (18:00)
18. 25 июля 2018 года (18:00)
19. 26 июля 2018 года (18:00)
20. 27 июля 2018 года (18:00)
21. 30 июля 2018 года (18:00)
22. 31 июля 2018 года (18:00)
picpicpicpicpicpic
Для увеличения картинки щелкните мышкой по превью

Этот торрент недоступен для скачивания без регистрации, однако доступен по публичной magnet-ссылке (источники с публичных трекеров). Перед использованием ссылки прочтите, пожалуйста Пользовательское соглашение, а также как можно дольше оставайтесь на раздаче! Для того, чтобы скачать сам торрент-файл (который видит больше источников), а также для того, чтобы поблагодарить релизера, вам необходимо зарегистрироваться. Если регистрироваться лень - вы можете также попробовать скачать релиз по нашим партнерским ссылкам ниже. Кроме того, зарегистрированным пользователям не показывается всплывающая реклама при скачивании.

[underverse.name].t110087.torrent
Трекер: Зарегистрирован   [ 01.08.2018 07:57 ]  

Статус: проверено (by ARI71 at 01.08.2018 07:57)
Поблагодарили: 2 человека
Тип торрента: публичный - доступные источники с открытых трекеров: 
Размер: 4,81 GB (занимает 1,1 DVDR, для записи нужно 2 болванки DVDR/RW)
 
 
Похожие темы
Форум Тема Автор Торрент Отв. Посл. сооб.
Информационно-аналитические передачи Время новостей Донбасса (22 выпусков, 2-31 мая) [2018 г., информационно-аналитическая программа, новости, DVB] ARI71
1 | 0

3 | 2114

0

04.06.2018 11:39

Информационно-аналитические передачи Время новостей Донбасса (19 выпусков, 1-27 июня) [2018 г., информационно-аналитическая программа, новости, DVB] ARI71
0 | 0

1 | 1324

1

07.06.2018 20:34

Информационно-аналитические передачи Время новостей Донбасса (23 выпуска за 1-31 августа) [2018 г., информационно-аналитическая программа, новости, DVB] ARI71
0 | 0

1 | 652

0

08.08.2018 19:35

Информационно-аналитические передачи Время новостей Донбасса (20 выпусков за 3-28 сентября) [2018 г., информационно-аналитическая программа, новости, DVB] ARI71
1 | 0

1 | 1850

2

06.09.2018 06:28



Последний раз редактировалось: ARI71 (01.08.2018 07:56), всего редактировалось 17 раз(а)

ARI71 Пол:Муж

06-Июл-2018 08:54

Добавлен выпуск за 31 июля

Яндекс.Метрика powered by Sphinx


В Н И М А Н И Е
Сайт не распространяет и не хранит электронные версии произведений, а лишь бесплатно и без коммерческой выгоды (не требуя взамен платы,
SMS и т.д.) предоставляет доступ к создаваемому пользователями каталогу ссылок на торрент-файлы, которые содержат только списки хеш-сумм.
Убедительная просьба с жалобами обращаться напрямую к пользователю, разместившему торрент файл.

Вверх