Loading...
Error

Папа-мама гусь / Duck Duck Goose (Крис Дженкинс / Christopher Jenkins) [2018 г., мультфильм, комедия, приключения, BDRemux 1080p] Dub (iTunes) + Original (Eng)

Статистика раздачи
Размер:  20,99 GB   |    Зарегистрирован:  4 месяца 22 дня   |    Скачан:  2 раза

Полного источника не было: 4 дня

Сидов:  0  |  0 KB/s  ]   Личеров:  0  |  0 KB/s  ]

* - сиды/пиры с внешних источников

   
 
Автор Сообщение

90ytr90 

24-Июл-2018 13:59

Папа-мама гусь / Duck Duck Goose
«К взлёту готовы!»

Страна: Китай, США
Год выпуска: 2018
Жанр: мультфильм, комедия, приключения
Продолжительность: 01:31:22
Озвучивание:
  • профессиональное (полное дублирование) [iTunes]
  • оригинальная звуковая дорожка [английский]

Режиссёр: Крис Дженкинс / Christopher Jenkins

Роли озвучивали:
Джим Гэффиган (Peng, озвучка), Зендея (Chi, озвучка), Лэнс Лим (Chao, озвучка), Грег Прупс (Banzou, озвучка), Наташа Леджеро (Jinjing, озвучка), Дидрих Бадер (Bing, озвучка), Регги Уоттс (Carl, озвучка), Карл Райнер (Larry, озвучка), Стивен Фрай (Frazier, озвучка), Крэйг Фергюсон (Giles, озвучка), Дженнифер Грей (Edna, озвучка), Рик Овертон (Stanley, озвучка)


Сюжет фильма:
Пэм — веселый и самовлюбленный неудачник, который постоянно попадает в нелепые ситуации и подвергает свою родню опасности. Ему всегда удавалось избежать наказания, но не в этот раз…. Из-за полученной травмы крыла, неудачливый эгоист упал на землю, где не сумел благополучно приземлиться. Рухнув вниз, он чуть было не задавил двух маленьких утят. Несмотря на свой скверный и несерьезный характер, Пэм проявил заботу о малышах. У гуся созрел план — отправиться в дорогу с птенцами пешком. Им предстоит преодолеть множество километров, где их ждет масса приключений и испытаний.

  • Дата мировой премьеры: 9 марта 2018
  • Дата российской премьеры: 1 мая 2018, «Двадцатый Век Фокс СНГ» 3D
             
Качество видео: BDRemux 1080p
Формат: MKV
Видео: AVC, 1920x1080 (16:9), 29.6 Mbps, 23.976 (24000/1001) fps, 0.596 bit/pixel
Аудио #1: AC3, 384 kbps, 6 ch, 48 kHz, Dub [iTunes]
Аудио #2: DTS-HD MA, 2863/1509 kbps, 8/6 ch, 48 kHz,
Навигация по главам: есть (12)

Сборка: СелезеньS
General
Unique ID : 128587011417199142971832190835014596361 (0x60BCF5239EA9F34A45539941F66D7709)
Complete name : D:Video111Duck.Duck.Goose.2018.BDREMUX.1080p.ExKinoRay.mkv
Format : Matroska
Format version : Version 4 / Version 2
File size : 21.0 GiB
Duration : 1 h 31 min
Overall bit rate mode : Variable
Overall bit rate : 32.9 Mb/s
Movie name : Duck Duck Goose 2018 from ExKinoRay
Encoded date : UTC 2018-07-24 11:48:37
Writing application : mkvmerge v23.0.0 ('The Bride Said No') 64-bit
Writing library : libebml v1.3.6 + libmatroska v1.4.9

Video
ID : 1
Format : AVC
Format/Info : Advanced Video Codec
Format profile : High@L4.1
Format settings : CABAC / 4 Ref Frames
Format settings, CABAC : Yes
Format settings, ReFrames : 4 frames
Codec ID : V_MPEG4/ISO/AVC
Duration : 1 h 31 min
Bit rate mode : Variable
Bit rate : 29.6 Mb/s
Maximum bit rate : 33.0 Mb/s
Width : 1 920 pixels
Height : 1 080 pixels
Display aspect ratio : 16:9
Frame rate mode : Constant
Frame rate : 23.976 (24000/1001) FPS
Color space : YUV
Chroma subsampling : 4:2:0
Bit depth : 8 bits
Scan type : Progressive
Bits/(Pixel*Frame) : 0.596
Stream size : 18.9 GiB (90%)
Language : English
Default : Yes
Forced : No

Audio #1
ID : 2
Format : AC-3
Format/Info : Audio Coding 3
Codec ID : A_AC3
Duration : 1 h 30 min
Bit rate mode : Constant
Bit rate : 384 kb/s
Channel(s) : 6 channels
Channel positions : Front: L C R, Side: L R, LFE
Sampling rate : 48.0 kHz
Frame rate : 31.250 FPS (1536 SPF)
Bit depth : 16 bits
Compression mode : Lossy
Stream size : 250 MiB (1%)
Title : iTunes
Language : Russian
Service kind : Complete Main
Default : Yes
Forced : Yes

Audio #2
ID : 3
Format : DTS
Format/Info : Digital Theater Systems
Format profile : MA / Core
Codec ID : A_DTS
Duration : 1 h 31 min
Bit rate mode : Variable / Constant
Bit rate : 2 863 kb/s / 1 509 kb/s
Channel(s) : 8 channels / 6 channels
Channel positions : Front: L C R, Side: L R, Back: L R, LFE / Front: L C R, Side: L R, LFE
Sampling rate : 48.0 kHz
Frame rate : 93.750 FPS (512 SPF)
Bit depth : 16 bits
Compression mode : Lossless / Lossy
Stream size : 1.83 GiB (9%)
Title : Original
Language : English
Default : No
Forced : No

Menu
00:00:00.000 : en:00:00:00.000
00:04:28.393 : en:00:04:28.393
00:09:52.300 : en:00:09:52.300
00:14:37.293 : en:00:14:37.293
00:22:24.927 : en:00:22:24.927
00:28:30.417 : en:00:28:30.417
00:34:29.150 : en:00:34:29.150
00:42:23.541 : en:00:42:23.541
00:48:38.207 : en:00:48:38.207
00:59:05.041 : en:00:59:05.041
01:05:32.846 : en:01:05:32.846
01:14:47.483 : en:01:14:47.483


pic pic pic
Для увеличения картинки щелкните мышкой по превью



pic pic pic pic pic

Этот торрент недоступен для скачивания без регистрации, однако доступен по публичной magnet-ссылке (источники с публичных трекеров). Перед использованием ссылки прочтите, пожалуйста Пользовательское соглашение, а также как можно дольше оставайтесь на раздаче! Для того, чтобы скачать сам торрент-файл (который видит больше источников), а также для того, чтобы поблагодарить релизера, вам необходимо зарегистрироваться. Если регистрироваться лень - вы можете также попробовать скачать релиз по нашим партнерским ссылкам ниже. Кроме того, зарегистрированным пользователям не показывается всплывающая реклама при скачивании.

[underverse.in].t109583.torrent
Трекер: Зарегистрирован   [ 24.07.2018 13:59 ]  

Статус: T временная (by 90ytr90 at 24.07.2018 14:13)
Поблагодарили: пока никто не поблагодарил...
Тип торрента: публичный - доступные источники с открытых трекеров: 
Размер: 20,99 GB (занимает 4,79 DVDR, для записи нужно 5 болванок DVDR/RW)
 
 
Похожие темы
Форум Тема Автор Торрент Отв. Посл. сооб.
T Зарубежные мультфильмы Папа-мама гусь / Duck Duck Goose (Крис Дженкинс / Christopher Jenkins) [2018 г., мультфильм, комедия, приключения, BDRip] Dub (iTunes) 90ytr90
79 | 1

0 | 271

21

24.07.2018 13:56

T Зарубежные мультфильмы Папа-мама гусь / Duck Duck Goose (Крис Дженкинс / Christopher Jenkins) [2018 г., мультфильм, комедия, приключения, BDRip-AVC] Dub (iTunes) 90ytr90
7 | 0

0 | 245

4

25.07.2018 15:06

T Зарубежные мультфильмы Папа-мама гусь / Duck Duck Goose (Крис Дженкинс / Christopher Jenkins) [2018 г., мультфильм, комедия, приключения, HDRip] Dub (iTunes) 90ytr90
65 | 1

0 | 291

5

25.07.2018 15:10

T Зарубежные мультфильмы Папа-мама гусь / Duck Duck Goose (Крис Дженкинс / Christopher Jenkins) [2018 г., мультфильм, комедия, приключения, BDRip-AVC] Dub (iTunes) + Original (Eng) + Sub (Eng) 90ytr90
27 | 0

0 | 273

14

25.07.2018 16:02

T Мультфильмы [HDDVDRip / BDRip / WEB-DL / HDTV 1080/720р] Папа-мама гусь / Duck Duck Goose (Крис Дженкинс / Christopher Jenkins) [2018 г., мультфильм, комедия, приключения, BDRip 1080p] Dub (iTunes) + Original (Eng) 90ytr90
73 | 1

0 | 297

9

24.07.2018 11:50

T Мультфильмы [HDDVDRip / BDRip / WEB-DL / HDTV 1080/720р] Папа-мама гусь / Duck Duck Goose (Крис Дженкинс / Christopher Jenkins) [2018 г., мультфильм, комедия, приключения, BDRip 720p] Dub (iTunes) + Original (Eng) 90ytr90
54 | 4

0 | 275

15

24.07.2018 11:50

© Новинки мультфильмов [CAMRip, TS, DVDScr, WP, TC] Папа-мама гусь / Duck Duck Goose (Крис Дженкинс) [2018 г., мультфильм, комедия, приключения, семейный, TS] Dub makkol
3 | 0
1,37 GB

0 | 7625

16

07.05.2018 10:08


Яндекс.Метрика powered by Sphinx


В Н И М А Н И Е
Сайт не распространяет и не хранит электронные версии произведений, а лишь бесплатно и без коммерческой выгоды (не требуя взамен платы,
SMS и т.д.) предоставляет доступ к создаваемому пользователями каталогу ссылок на торрент-файлы, которые содержат только списки хеш-сумм.
Убедительная просьба с жалобами обращаться напрямую к пользователю, разместившему торрент файл.

Вверх