Loading...
Error

(New Age) Enya - And Winter Came (2008) [FLAC (Tracks+.CUE), lossless]

Статистика раздачи
Размер:  253 MB   |    Зарегистрирован:  8 лет 2 месяца   |    Скачан:  4 раза

Полного источника не было: 1 месяц 21 день

Сидов:  0  |  0 KB/s  ]   Личеров:  0  |  0 KB/s  ]

* - сиды/пиры с внешних источников

   
 
Автор Сообщение

Bratok Пол:Муж

22-Май-2010 20:18

Enya - And Winter Came
Жанр: New Age
Год выпуска: 2008
Производитель диска: США
Аудиокодек: FLAC
Тип рипа: Tracks+.CUE
Битрейт аудио: lossless
Продолжительность: 00:45:05

Треклист:
01. And Winter Came... [0:03:15.84]
02. Journey of the Angels [0:04:47.26]
03. White is in the Winter Night [0:03:00.17]
04. O Come, O Come, Emmanuel [0:03:40.18]
05. Trains and Winter Rains [0:03:44.74]
06. Dreams are More Precious [0:04:25.70]
07. Last Time by Moonlight [0:03:57.70]
08. One Toy Soldier [0:03:54.29]
09. Stars and Midnight Blue [0:03:08.73]
10. The Spirit of Christmas Past [0:04:18.06]
11. My! My! Time Flies! [0:03:02.92]
12. Oнche Chiъin (chorale) [0:03:49.56]


Релиз группы:
Exact Audio Copy V0.99 prebeta 5 from 4. May 2009

EAC extraction logfile from 23. May 2010, 0:15

Enya / And winter came...

Used drive : TSSTcorpCDDVDW SH-S202J Adapter: 0 ID: 0

Read mode : Secure
Utilize accurate stream : Yes
Defeat audio cache : Yes
Make use of C2 pointers : No

Read offset correction : 6
Overread into Lead-In and Lead-Out : No
Fill up missing offset samples with silence : Yes
Delete leading and trailing silent blocks : No
Null samples used in CRC calculations : Yes
Used interface : Native Win32 interface for Win NT & 2000
Gap handling : Appended to previous track

Used output format : User Defined Encoder
Selected bitrate : 128 kBit/s
Quality : High
Add ID3 tag : No
Command line compressor : C:\Program Files\Exact Audio Copy\Flac\flac.exe
Additional command line options : -8 -V -T "ARTIST=%a" -T "TITLE=%t" -T "ALBUM=%g" -T "DATE=%y" -T "TRACKNUMBER=%n" -T "GENRE=%m" -T "COMMENT=EAC FLAC -8" %s

TOC of the extracted CD

Track | Start | Length | Start sector | End sector
---------------------------------------------------------
1 | 0:00.00 | 3:15.63 | 0 | 14687
2 | 3:15.63 | 4:47.20 | 14688 | 36232
3 | 8:03.08 | 3:00.13 | 36233 | 49745
4 | 11:03.21 | 3:40.14 | 49746 | 66259
5 | 14:43.35 | 3:44.56 | 66260 | 83115
6 | 18:28.16 | 4:25.53 | 83116 | 103043
7 | 22:53.69 | 3:57.53 | 103044 | 120871
8 | 26:51.47 | 3:54.22 | 120872 | 138443
9 | 30:45.69 | 3:08.55 | 138444 | 152598
10 | 33:54.49 | 4:18.05 | 152599 | 171953
11 | 38:12.54 | 3:02.69 | 171954 | 185672
12 | 41:15.48 | 3:49.42 | 185673 | 202889

Track 1

Filename D:\музыка на торент\Enya And winter came\01. Enya – And Winter Came....wav

Pre-gap length 0:00:02.00

Peak level 99.5 %
Track quality 100.0 %
Test CRC 6E419F52
Copy CRC 6E419F52
Accurately ripped (confidence 200) [AEC31514]
Copy OK

Track 2

Filename D:\музыка на торент\Enya And winter came\02. Enya – Journey of the Angels.wav

Peak level 99.6 %
Track quality 100.0 %
Test CRC 3E876E39
Copy CRC 3E876E39
Accurately ripped (confidence 200) [ED4CC28E]
Copy OK

Track 3

Filename D:\музыка на торент\Enya And winter came\03. Enya – White is in the Winter Night.wav

Peak level 99.7 %
Track quality 100.0 %
Test CRC 793D0327
Copy CRC 793D0327
Accurately ripped (confidence 200) [2CC8E333]
Copy OK

Track 4

Filename D:\музыка на торент\Enya And winter came\04. Enya – O Come, O Come, Emmanuel.wav

Peak level 99.6 %
Track quality 100.0 %
Test CRC F458DF67
Copy CRC F458DF67
Accurately ripped (confidence 200) [7C5A9C4C]
Copy OK

Track 5

Filename D:\музыка на торент\Enya And winter came\05. Enya – Trains and Winter Rains.wav

Peak level 99.6 %
Track quality 100.0 %
Test CRC 9B95E558
Copy CRC 9B95E558
Accurately ripped (confidence 200) [3422F054]
Copy OK

Track 6

Filename D:\музыка на торент\Enya And winter came\06. Enya – Dreams are More Precious.wav

Peak level 99.6 %
Track quality 100.0 %
Test CRC 60C74002
Copy CRC 60C74002
Accurately ripped (confidence 200) [3ADEA8CD]
Copy OK

Track 7

Filename D:\музыка на торент\Enya And winter came\07. Enya – Last Time by Moonlight.wav

Peak level 99.6 %
Track quality 100.0 %
Test CRC 90F556B7
Copy CRC 90F556B7
Accurately ripped (confidence 200) [D3C84514]
Copy OK

Track 8

Filename D:\музыка на торент\Enya And winter came\08. Enya – One Toy Soldier.wav

Peak level 99.6 %
Track quality 100.0 %
Test CRC 45C1A82D
Copy CRC 45C1A82D
Accurately ripped (confidence 200) [062AC791]
Copy OK

Track 9

Filename D:\музыка на торент\Enya And winter came\09. Enya – Stars and Midnight Blue.wav

Peak level 99.5 %
Track quality 100.0 %
Test CRC B7582520
Copy CRC B7582520
Accurately ripped (confidence 200) [47102319]
Copy OK

Track 10

Filename D:\музыка на торент\Enya And winter came\10. Enya – The Spirit of Christmas Past.wav

Peak level 99.6 %
Track quality 100.0 %
Test CRC 69FA8297
Copy CRC 69FA8297
Accurately ripped (confidence 200) [BBFCE1BA]
Copy OK

Track 11

Filename D:\музыка на торент\Enya And winter came\11. Enya – My! My! Time Flies!.wav

Peak level 99.6 %
Track quality 100.0 %
Test CRC 933160B2
Copy CRC 933160B2
Accurately ripped (confidence 200) [40442234]
Copy OK

Track 12

Filename D:\музыка на торент\Enya And winter came\12. Enya – Oнche Chiъin (chorale).wav

Peak level 99.6 %
Track quality 100.0 %
Test CRC 1B291E71
Copy CRC 1B291E71
Accurately ripped (confidence 200) [0FD93193]
Copy OK

All tracks accurately ripped

No errors occurred

End of status report

Этот торрент недоступен для скачивания без регистрации, однако доступен по публичной magnet-ссылке (источники с публичных трекеров). Перед использованием ссылки прочтите, пожалуйста Пользовательское соглашение, а также как можно дольше оставайтесь на раздаче! Для того, чтобы скачать сам торрент-файл (который видит больше источников), а также для того, чтобы поблагодарить релизера, вам необходимо зарегистрироваться. Если регистрироваться лень - вы можете также попробовать скачать релиз по нашим партнерским ссылкам ниже. Кроме того, зарегистрированным пользователям не показывается всплывающая реклама при скачивании.

[underverse.su].t10247.torrent
Трекер: Зарегистрирован   [ 22.05.2010 20:18 ]  

Статус: проверено (by ZondeR at 22.05.2010 20:33)
Поблагодарили: пока никто не поблагодарил...
Тип торрента: публичный - доступные источники с открытых трекеров: 
Размер: 253 MB (занимает 0,06 DVDR, для записи нужно 1 болванка DVDR/RW)
 
 
Похожие темы
Форум Тема Автор Торрент Отв. Посл. сооб.
Traditional Electronic, Ambient, NewAge (New Age) Terry Oldfield & Carlos Garo - Sky Dancer (2017) [MP3, 320 kbps CBR] Darkferse
2 | 0

0 | 914

6

16.05.2017 08:02

Traditional Electronic, Ambient, NewAge (New Age) Tsukinosora - Next Door (2012) [MP3, 320 kbps CBR] Jimmy
1 | 0

0 | 1875

5

19.12.2012 07:10

Traditional Electronic, Ambient, NewAge (New Age) Nicholas Gunn - Thirty-One Nights (2012) [MP3, 320 kbps CBR] Jimmy
0 | 0

0 | 1941

7

20.12.2012 04:57

Traditional Electronic, Ambient, NewAge (New Age) kokohana - kokohana Ghibli Mix (2012) [MP3, 320 kbps CBR] Jimmy
2 | 0

0 | 1919

3

20.12.2012 05:00

Traditional Electronic, Ambient, NewAge (New Age) Karunesh - Colors of the East (2012) [MP3, 320 kbps CBR] Jimmy
9 | 0

0 | 2015

12

20.12.2012 05:05

Traditional Electronic, Ambient, NewAge (New Age) Guy Sweens - Pathways (2016) [MP3, 320 kbps] ANDRAKO
0 | 0

0 | 639

5

09.11.2016 13:03

Traditional Electronic, Ambient, NewAge (New Age) Кулай - Спроси у Солнца (2016) [MP3, 320 kbps] ANDRAKO
0 | 0

0 | 418

2

09.11.2016 12:45

Traditional Electronic, Ambient, NewAge (New Age) Дидюля & Chris Wonderful - Аквамарин (2017) [MP3, 320 kbps CBR] Serghanter
21 | 0

0 | 1246

17

23.04.2017 08:20

Traditional Electronic, Ambient, NewAge (New Age) Deuter - Bamboo Forest (2017) [MP3, 320 kbps CBR] Darkferse
10 | 0

0 | 361

3

29.12.2017 09:38

Зарубежная музыка других жанров (New Age) Wychazel - Cloud Forest Temple (2018) [MP3, 320 kbps CBR] Darkferse
10 | 0

0 | 196

6

02.07.2018 16:47

Bratok Пол:Муж

22-Май-2010 20:23

Если нужны будут сканы,пишите в личку. :)

31-Янв-2018 21:15

Топик был перенесен из форума Traditional Electronic, Ambient, NewAge (Lossless) в форум Архив (HQ электронная музыка)


[cron robot]
 

Яндекс.Метрика powered by Sphinx


В Н И М А Н И Е
Сайт не распространяет и не хранит электронные версии произведений, а лишь бесплатно и без коммерческой выгоды (не требуя взамен платы,
SMS и т.д.) предоставляет доступ к создаваемому пользователями каталогу ссылок на торрент-файлы, которые содержат только списки хеш-сумм.
Убедительная просьба с жалобами обращаться напрямую к пользователю, разместившему торрент файл.

Вверх