Loading...
Error

Udemy - Полный курс по кибербезопасности: Сетевая безопасность! [Часть 1,2,3 из 9] [2017 г., кибербезопасность, PCRec]

Статистика раздачи
Размер:  5,29 GB   |    Зарегистрирован:  2 месяца 5 дней   |    Скачан:  13 раз

Полного источника не было: 3 дня

Сидов:  0  |  0 KB/s  ]   Личеров:  0  |  0 KB/s  ]

* - сиды/пиры с внешних источников

   
 
Автор Сообщение

Паукан Пол:Муж

11-Окт-2018 11:50

Udemy - Полный курс по кибербезопасности: Сетевая безопасность! [Часть 1,2,3 из 9] (2017) PCRec [H.264/720p-LQ]

Автор (режиссер): Udemy
Жанр: IT Безопасность

Описание:
"Полный курс по кибербезопасности" состоит из 4 томов.

Первый том "Секреты хакеров!", второй том "Сетевая безопасность!", третий том "Анонимный серфинг в сети!", четвёртый том "Защита рабочей станции!"

Перевод и озвучка второго тома "Сетевая безопасность!" поделена на 9 частей.

В данной раздаче находится перевод 1, 2, 3 части 2-го тома.

Продолжительность: 03:47:52
Качество видео: PCRec

Видео: AVC/H.264, 1280x720, ~3639 Kbps
Аудио: AAC, 2 ch, 191 Kbps
[pre]
General
Complete name : D:\Торренты\Сетевая безопасность (Часть 1)\01 Введение\001 Добро Пожаловать во Второй Том.mp4
Format : MPEG-4
Format profile : Base Media / Version 2
Codec ID : mp42 (mp42/isom)
File size : 15.6 MiB
Duration : 34 s 100 ms
Overall bit rate mode : Variable
Overall bit rate : 3 836 kb/s
Encoded date : UTC 2017-10-24 14:08:48
Tagged date : UTC 2017-10-24 14:08:48

Video
ID : 2
Format : AVC
Format/Info : Advanced Video Codec
Format profile : Main@L3.2
Format settings : CABAC / 3 Ref Frames
Format settings, CABAC : Yes
Format settings, ReFrames : 3 frames
Codec ID : avc1
Codec ID/Info : Advanced Video Coding
Duration : 34 s 100 ms
Bit rate mode : Variable
Bit rate : 3 639 kb/s
Maximum bit rate : 4 000 kb/s
Width : 1 280 pixels
Height : 720 pixels
Display aspect ratio : 16:9
Frame rate mode : Constant
Frame rate : 30.000 FPS
Standard : NTSC
Color space : YUV
Chroma subsampling : 4:2:0
Bit depth : 8 bits
Scan type : Progressive
Bits/(Pixel*Frame) : 0.132
Stream size : 14.8 MiB (95%)
Language : English
Encoded date : UTC 2017-10-24 14:08:48
Tagged date : UTC 2017-10-24 14:08:48
Color range : Limited

Audio
ID : 1
Format : AAC
Format/Info : Advanced Audio Codec
Format profile : LC
Codec ID : mp4a-40-2
Duration : 34 s 69 ms
Bit rate mode : Constant
Bit rate : 192 kb/s
Channel(s) : channel0
Channel(s)_Original : 2 channels
Channel positions : Front: L R
Sampling rate : 48.0 kHz
Frame rate : 46.875 FPS (1024 SPF)
Compression mode : Lossy
Stream size : 798 KiB (5%)
Language : English
Encoded date : UTC 2017-10-24 14:08:48
Tagged date : UTC 2017-10-24 14:08:48
[/pre]
Первая часть
Маршрутизаторы — сканирование портов и уязвимостей
Настройка маршрутизатора для домашнего использования
Внешнее сканирование уязвимостей — Shodan, Qualys и Nmap
Внутреннее сканирование уязвимостей — MBSA, Nmap, Nessus, Fing, Superscan и OpenVAS
Кастомные опенсорсные прошивки маршрутизаторов

Вторая часть
Брандмауэры — программные, аппаратные и виртуальные
Windows — Брандмауэры на базе узлов — Брандмауэр Windows
Windows — Windows Firewall Control (WFC)
Windows — Брандмауэры на базе узлов — Сторонние разработчики
Linux — Брандмауэры на базе узлов — iptables
Linux — Брандмауэры на базе узлов — UFW, gufw и nftables

Третья часть

Межсетевые экраны / Брандмауэры / Файрволы
Mac — Брандмауэры на базе узлов — Брандмауэр для программ (Application Firewall) и Packet Filter (PF)
Mac — Брандмауэры на базе узлов — pflist, Icefloor и Murus
Mac — Брандмауэры на базе узлов — Little Snitch
Сетевые брандмауэры — Маршрутизаторы — DD-WRT
Сетевые брандмауэры — Аппаратная часть
Сетевые брандмауэры — pfSense, Smoothwall и Vyos​

Сетевые атаки, Архитектура и Изоляция
Введение и Интернет вещей (IOT)
ARP-spoofing и сетевые коммутаторы
Эффективная изоляция сетей​
16.08 - добавлена 2-я часть
06.10 - добавлена 3 часть

Скриншоты:
pic pic pic pic

Этот торрент недоступен для скачивания без регистрации, однако доступен по публичной magnet-ссылке (источники с публичных трекеров). Перед использованием ссылки прочтите, пожалуйста Пользовательское соглашение, а также как можно дольше оставайтесь на раздаче! Для того, чтобы скачать сам торрент-файл (который видит больше источников), а также для того, чтобы поблагодарить релизера, вам необходимо зарегистрироваться. Если регистрироваться лень - вы можете также попробовать скачать релиз по нашим партнерским ссылкам ниже. Кроме того, зарегистрированным пользователям не показывается всплывающая реклама при скачивании.

[underverse.name].t115874.torrent
Трекер: Зарегистрирован   [ 11.10.2018 11:50 ]  

Статус: проверено (by Паукан at 11.10.2018 11:50)
Поблагодарили: пока никто не поблагодарил...
Тип торрента: публичный - доступные источники с открытых трекеров: 
Размер: 5,29 GB (занимает 1,21 DVDR, для записи нужно 2 болванки DVDR/RW)
 
 

Яндекс.Метрика powered by Sphinx


В Н И М А Н И Е
Сайт не распространяет и не хранит электронные версии произведений, а лишь бесплатно и без коммерческой выгоды (не требуя взамен платы,
SMS и т.д.) предоставляет доступ к создаваемому пользователями каталогу ссылок на торрент-файлы, которые содержат только списки хеш-сумм.
Убедительная просьба с жалобами обращаться напрямую к пользователю, разместившему торрент файл.

Вверх