Loading...
Error

Майянцы / Mayans M.C. (Сезон 1, Серия 1-6 из 10 )( Норберто Барба, Гай Ферленд)[2018, Триллер, драма, криминал , WEB-DLRip][720p][ Lostfilm+Jaskier+NewStudio+BaibaKО+ProfixMedia+Eng]+[Subs ENG+Rus]

Статистика раздачи
Размер:  17,08 GB   |    Зарегистрирован:  26 дней   |    Скачан:  1 раз

Полного источника не было: 5 часов

Сидов:  0  |  0 KB/s  ]   Личеров:  0  |  0 KB/s  ]

* - сиды/пиры с внешних источников

   
 
Автор Сообщение

Nikolai.Baranov Пол:Муж

17-Окт-2018 08:38





Майянцы / Mayans M.C. Сезон 1, Серия 1-6 из 10




Год выпуска: 2018
Выпущено: США , Fox 21 Television Studios, FX Productions
Жанр:Триллер, драма, криминал
Продолжительность: 01:00:00
Сезон:1
Серия: 1-6
Количество серий в сезоне: 10

Озвучка 1: - Профессиональный многоголосый -Lostfilm- Русский

Озвучка2: Профессиональный многоголосый - Jaskier -Русский

Озвучка 3: Профессиональный многоголосый - BaibaKo -Русский

Озвучка 4: Профессиональный многоголосый - ProfixMedia -Русский

Озвучка 5: Профессиональный двухголосый - NewStudio -Русский

Озвучка 6: Профессиональный многоголосый - Английский - Оригинал

Субтитры: : Russian, English, English SDH

ВНИМАНИЕ! В сериале присутствуют сцены сексуального характера и ненормативная лексика

Официальный сайт

MDB

РежиссерЫ: Норберто Барба, Гай Ферленд, Курт Саттер

В ролях: Дж.Д. Пардо, Клэйтон Карденас, Эдвард Джеймс Олмос, Сара Болгер, Майкл Ирби, Карла Баратта, Антонио Харамильо, Рауль Трухильо, Ричард Кебрал, Дэниэл Пино, Эмилио Ривера, Винсент Варгас, Фрэнки Лояль Дельгадо, Роберт Патрик, Джино Венто

События сериала начинаются через два с половиной года после финального эпизода сериала «Сыны анархии». Главный герой — Эзекьель Рейес, кандидат в члены клуба «майянцев» на границе Калифорнии и Мексики, который хочет отомстить наркокартелю



Качество :WEB-DLRip 720p
Формат: MKV
Видео кодек: H264
Видео: 4001Кбит/сек,1280х720(16.9),в 23.976кадр/сек,AVC (High@L3.1)(CABAC/2 Ref Frames)

Аудио Кодек:AC3

Аудио #1:AC3 640 Kbps, 48.0 KHz, 6 ch- Lostfilm -Русский

Аудио #2:AC3 , 384 Kbps, 48.0 KHz, 6 ch- Jaskier -Русский

Аудио #3:AC3 , 384 Kbps, 48.0 KHz, 6 ch- BaibaKo -Русский

Аудио #4:AC3 , 384 Kbps, 48.0 KHz, 6 ch- ProfixMedia -Русский

Аудио #5:AC3 , 384 Kbps, 48.0 KHz, 6 ch- NewStudio -Русский

Аудио #6: AC3, 640 Kbps, 48.0 KHz,6 ch - - English - Оригинал

Звуковая дорожка сделана путем наложения чистого голоса озвучивателей на центральный канал оригинальной дорожки. Качество идентично звуковой дорожке.


1 сезон 1 серия - Пес - Perro/Oc
1 сезон 2 серия - Скорпион - Escorpión/Dzec
1 сезон 3 серия - Филин - Búho/Muwan
1 сезон 4 серия - Летучая мышь -Murciélago/Zotz
1 сезон 5 серия - Опоссум - Uch/Opossum
1 сезон 6 серия - Кот - Gatos/Mis




Общее
Уникальный идентификатор : 177001015814847787087253229392464634785 (0x852927D8F8C9EE7290F702D8D866E3A1)
Полное имя : E:\Nikolai.Baranov & PIRATIYA\Майянцы - ( Mayans M.C. )\MAYANS_M.C._S01_Н264_DD5.1_N.B_HD_720_5xRus_Eng\Mayans_M.C._S01E01_Н264_DD5.1_N.B_HD_720_5xRus_Eng.mkv
Формат : Matroska
Версия формата : Version 4
Размер файла : 3,31 Гбайт
Продолжительность : 1 ч. 10 м.
Общий поток : 6773 Кбит/сек
Название фильма : Mayans M.C. S01E01 @ Nikolai.Baranov & PIRATIYA
Дата кодирования : UTC 2018-10-16 07:58:58
Программа кодирования : mkvmerge v27.0.0 ('Metropolis') 64-bit
Библиотека кодирования : libebml v1.3.6 + libmatroska v1.4.9

Видео
Идентификатор : 1
Формат : AVC
Формат/Информация : Advanced Video Codec
Профиль формата : High@L3.1
Настройки формата : 2 Ref Frames
Параметр CABAC формата : Нет
Параметр RefFrames формата : 2 кадра
Идентификатор кодека : V_MPEG4/ISO/AVC
Продолжительность : 1 ч. 10 м.
Битрейт : 4001 Кбит/сек
Ширина : 1280 пикселей
Высота : 720 пикселей
Соотношение сторон : 16:9
Режим частоты кадров : Постоянный
Частота кадров : 23,976 кадра/сек
Цветовое пространство : YUV
Субдискретизация насыщенности : 4:2:0
Битовая глубина : 8 бит
Тип развёртки : Прогрессивная
Бит/(Пиксели*Кадры) : 0.181
Размер потока : 1,96 Гбайт (59%)
Заголовок : Mayans_M.C._S01E01_Н264_DD5.1_N.B_HD_720_5xRus_Eng
Язык : Russian
Default : Нет
Forced : Нет
Цветовой диапазон : Limited
Основные цвета : BT.709
Характеристики трансфера : BT.709
Коэффициенты матрицы : BT.709

Аудио #1
Идентификатор : 6
Формат : AC-3
Формат/Информация : Audio Coding 3
Коммерческое название : Dolby Digital
Идентификатор кодека : A_AC3
Продолжительность : 1 ч. 8 м.
Вид битрейта : Постоянный
Битрейт : 640 Кбит/сек
Каналы : 6 каналов
Channel layout : L R C LFE Ls Rs
Частота : 48,0 КГц
Частота кадров : 31,250 кадров/сек (1536 SPF)
Битовая глубина : 16 бит
Метод сжатия : С потерями
Размер потока : 312 Мбайт (9%)
Заголовок : MVO LostFilm @DD5.1 AC3, 640 Kbps, 48.0 KHz, 6 ch
Язык : Russian
ServiceKind/String : Complete Main
Default : Да
Forced : Нет

Аудио #2
Идентификатор : 7
Формат : AC-3
Формат/Информация : Audio Coding 3
Коммерческое название : Dolby Digital
Идентификатор кодека : A_AC3
Продолжительность : 1 ч. 10 м.
Вид битрейта : Постоянный
Битрейт : 384 Кбит/сек
Каналы : 6 каналов
Channel layout : L R C LFE Ls Rs
Частота : 48,0 КГц
Частота кадров : 31,250 кадров/сек (1536 SPF)
Битовая глубина : 16 бит
Метод сжатия : С потерями
Размер потока : 192 Мбайт (6%)
Заголовок : MVO Jaskier @DD5.1 AC3, 384 Kbps, 48.0 KHz, 6 ch
Язык : Russian
ServiceKind/String : Complete Main
Default : Нет
Forced : Нет

Аудио #3
Идентификатор : 8
Формат : AC-3
Формат/Информация : Audio Coding 3
Коммерческое название : Dolby Digital
Идентификатор кодека : A_AC3
Продолжительность : 1 ч. 10 м.
Вид битрейта : Постоянный
Битрейт : 384 Кбит/сек
Каналы : 6 каналов
Channel layout : L R C LFE Ls Rs
Частота : 48,0 КГц
Частота кадров : 31,250 кадров/сек (1536 SPF)
Битовая глубина : 16 бит
Метод сжатия : С потерями
Размер потока : 192 Мбайт (6%)
Заголовок : MVO ProfixMedia @DD5.1 AC3, 384 Kbps, 48.0 KHz, 6 ch
Язык : Russian
ServiceKind/String : Complete Main
Default : Нет
Forced : Нет

Аудио #4
Идентификатор : 9
Формат : AC-3
Формат/Информация : Audio Coding 3
Коммерческое название : Dolby Digital
Идентификатор кодека : A_AC3
Продолжительность : 1 ч. 8 м.
Вид битрейта : Постоянный
Битрейт : 384 Кбит/сек
Каналы : 6 каналов
Channel layout : L R C LFE Ls Rs
Частота : 48,0 КГц
Частота кадров : 31,250 кадров/сек (1536 SPF)
Битовая глубина : 16 бит
Метод сжатия : С потерями
Размер потока : 187 Мбайт (6%)
Заголовок : MVO BaibaKo @DD5.1 AC3, 384 Kbps, 48.0 KHz, 6 ch
Язык : Russian
ServiceKind/String : Complete Main
Default : Нет
Forced : Нет

Аудио #5
Идентификатор : 10
Формат : AC-3
Формат/Информация : Audio Coding 3
Коммерческое название : Dolby Digital
Идентификатор кодека : A_AC3
Продолжительность : 1 ч. 10 м.
Вид битрейта : Постоянный
Битрейт : 384 Кбит/сек
Каналы : 6 каналов
Channel layout : L R C LFE Ls Rs
Частота : 48,0 КГц
Частота кадров : 31,250 кадров/сек (1536 SPF)
Битовая глубина : 16 бит
Метод сжатия : С потерями
Размер потока : 192 Мбайт (6%)
Заголовок : MVO NewStudio @DD5.1 AC3, 384 Kbps, 48.0 KHz, 6 ch
Язык : Russian
ServiceKind/String : Complete Main
Default : Нет
Forced : Нет

Аудио #6
Идентификатор : 11
Формат : AC-3
Формат/Информация : Audio Coding 3
Коммерческое название : Dolby Digital
Идентификатор кодека : A_AC3
Продолжительность : 1 ч. 8 м.
Вид битрейта : Постоянный
Битрейт : 640 Кбит/сек
Каналы : 6 каналов
Channel layout : L R C LFE Ls Rs
Частота : 48,0 КГц
Частота кадров : 31,250 кадров/сек (1536 SPF)
Битовая глубина : 16 бит
Метод сжатия : С потерями
Размер потока : 312 Мбайт (9%)
Заголовок : Original@DD5.1 AC3 ,640 Kbps, 48.0 KHz, 6 ch
Язык : English
ServiceKind/String : Complete Main
Default : Нет
Forced : Нет

Текст #1
Идентификатор : 2
Формат : ASS
Идентификатор кодека : S_TEXT/ASS
Идентификатор кодека/Информация : Advanced Sub Station Alpha
Продолжительность : 1 ч. 7 м.
Битрейт : 8 бит/сек
ElementCount : 73
Метод сжатия : Без потерь
Размер потока : 4,31 Кбайт (0%)
Заголовок : Rus - Forced
Язык : Russian
Default : Да
Forced : Нет

Текст #2
Идентификатор : 3
Формат : UTF-8
Идентификатор кодека : S_TEXT/UTF8
Идентификатор кодека/Информация : UTF-8 Plain Text
Продолжительность : 1 ч. 5 м.
Битрейт : 58 бит/сек
ElementCount : 680
Размер потока : 28,0 Кбайт (0%)
Заголовок : Rus
Язык : Russian
Default : Нет
Forced : Нет

Текст #3
Идентификатор : 4
Формат : UTF-8
Идентификатор кодека : S_TEXT/UTF8
Идентификатор кодека/Информация : UTF-8 Plain Text
Продолжительность : 1 ч. 9 м.
Битрейт : 37 бит/сек
ElementCount : 894
Размер потока : 19,1 Кбайт (0%)
Заголовок : Original - SDH
Язык : English
Default : Нет
Forced : Нет

Текст #4
Идентификатор : 5
Формат : UTF-8
Идентификатор кодека : S_TEXT/UTF8
Идентификатор кодека/Информация : UTF-8 Plain Text
Продолжительность : 1 ч. 9 м.
Битрейт : 32 бит/сек
ElementCount : 748
Размер потока : 16,6 Кбайт (0%)
Заголовок : Original
Язык : English
Default : Нет
Forced : Нет

Меню
00:00:00.000 : :Глава 01 / :Глава 01 / :Глава 01 / :Глава 01 / :Глава 01 / :Глава 01 / :Глава 01 / :Глава 01 / :Глава 01 / :Глава 01 / :Глава 01




Сезон 1

Внимание! Раздача пополняется по мере выхода новых серий!



Раздача ведётся путём добавления новых серий; при каждом добавлении создётся новый торрент.
Чтобы начать докачку новой серии, пользователям необходимо сделать следующее:
1. остановить скачивание,
2. удалить старый торрент у себя из клиента (старые серии удалять не надо),
3. скачать новый торрент и запустить его у себя в клиенте вместо старого, при этом указать клиенту путь в старую папку, куда и должно происходить скачивание новых серий.

Ваш клиент при этом должен произвести хеширование (проверку) старой папки (если не производит сам - помогите ему сделать это), и будет докачивать только те серии которых у вас ещё нет. Старые серии при этом не удаляются, а продолжают раздаваться!

Eсли вы уже удалили старые серии, то предотвратить повторную закачку старых серий можно, отжав галочку в соответсвующих местах при запуске нового торрента. По возможности, желательно не удалять старые серии как можно дольше, чтобы релизёр не столько продолжал раздавать старые серии, а смог сконцентрироваться на новых.

Совет для тех, кто не хочет ждать перехеширования:
Создайте ещё одну папку рядом с папкой сериала (рядом, а не в ней!!!). Каждую новую серию после удачной загрузки копируйте в новую папку так чтобы ваша основная папка всегда была пуста. Когда ваш новый торрент предложит вам закачать все файлы, выберете только последнюю. Для сидирования же укажите адрес новой папки.

Как закачать отдельный файл из торрента или докачать ранее пропущенные файлы торрента!
1. Открыть торрент
2. Снять галки с тех файлов торрента, которые мы не хотим закачивать. Оставляем только на нужных нам файлах (файле).
3. Нажать О.К.

В клиенте utorrent

Инструкция

1) Открыть торрент


2) Снять галки с тех файлов торрента, которые мы не хотим закачивать:

* либо вручную, снимая с каждого файла галку( скрин №1)
* либо, нажав кнопку "Снять метки (Select None)", сняв сразу со всех файлов(скрин №2)
№1
№2
Оставляем только на нужных нам файлах (файле).
3)Нажать О.К






Релиз от: Nikolai.Baranov & PIRATIYA - Поблагодарить:
ЯД: 410017546713876








Время раздачи : 24/7

Этот торрент недоступен для скачивания без регистрации, однако доступен по публичной magnet-ссылке (источники с публичных трекеров). Перед использованием ссылки прочтите, пожалуйста Пользовательское соглашение, а также как можно дольше оставайтесь на раздаче! Для того, чтобы скачать сам торрент-файл (который видит больше источников), а также для того, чтобы поблагодарить релизера, вам необходимо зарегистрироваться. Если регистрироваться лень - вы можете также попробовать скачать релиз по нашим партнерским ссылкам ниже. Кроме того, зарегистрированным пользователям не показывается всплывающая реклама при скачивании.

[underverse.name].t116244.torrent
Трекер: Зарегистрирован   [ 17.10.2018 08:38 ]  

Статус: T временная (by Паукан at 18.10.2018 14:07)
Поблагодарили: 1 человек
Тип торрента: публичный - доступные источники с открытых трекеров: 
Размер: 17,08 GB (занимает 3,9 DVDR, для записи нужно 4 болванки DVDR/RW)
 
 
Похожие темы
Форум Тема Автор Торрент Отв. Посл. сооб.
T Зарубежные сериалы Майянцы / Mayans M.C. (Сезон 1, Серия 1-6 из 10 )( Норберто Барба, Гай Ферленд) [2018, Триллер, драма, криминал , WEB-DLRip][400p][ Lostfilm+Jaskier+NewStudio+BaibaKО+ProfixMedia+ Kubik V... Nikolai.Baranov
0 | 3

0 | 380

2

01.10.2018 15:47

T Зарубежные сериалы [BD / Remux / BDRip / WEB-DL / HDTV 1080/720р] Майянцы / Mayans M.C. (Сезон 1, Серия 1-9 из 10 )( Норберто Барба, Гай Ферленд)[2018, Триллер, драма, криминал , WEB-DLRip 1080p][ Lostfilm+Jaskier+NewStudio+BaibaKО+ProfixMedia+ Kubik V... Nikolai.Baranov
1 | 3

0 | 533

0

02.10.2018 15:44


Яндекс.Метрика powered by Sphinx


В Н И М А Н И Е
Сайт не распространяет и не хранит электронные версии произведений, а лишь бесплатно и без коммерческой выгоды (не требуя взамен платы,
SMS и т.д.) предоставляет доступ к создаваемому пользователями каталогу ссылок на торрент-файлы, которые содержат только списки хеш-сумм.
Убедительная просьба с жалобами обращаться напрямую к пользователю, разместившему торрент файл.

Вверх