Loading...
Error

Титаны/ Titans (Сезон 1, Серия 1-5 из 13 )(Брэд Андерсон, Грант Харви) [2018, Фантастика, фэнтези, боевик, приключения, WEB-DLRip 1080p][ Lostfilm+Jaskier+BaibaKО+NewStudio+Profix.Media+IdeaFilm+GoodPeoplei+Eng]+[Subs ENG+Rus]

Статистика раздачи
Размер:  13,9 GB   |    Зарегистрирован:  1 день 11 часов   |    Скачан:  0 раз

Полного источника не было: 1 час 52 минуты

Сидов:  0  |  0 KB/s  ]   Личеров:  0  |  0 KB/s  ]

* - сиды/пиры с внешних источников

   
 
Автор Сообщение

Nikolai.Baranov Пол:Муж

21-Окт-2018 15:23





Титаны/ Titans Сезон 1, Серия 1-5 из 13



Год выпуска: 2018
Выпущено: США , Berlanti Productions,DC Entertainment,Warner Bros. Television
Жанр:Фантастика, фэнтези, боевик, приключения
Продолжительность: 00:45:00
Сезон:1
Серия: 1-5
Количество серий в сезоне: 13

Озвучка 1: - Профессиональный многоголосый -Lostfilm- Русский

Озвучка2: Профессиональный многоголосый - Jaskier -Русский

Озвучка 3: Профессиональный многоголосый - BaibaKo -Русский

Озвучка 4: Профессиональный многоголосый - GoodPeoplei -Русский

Озвучка 5: Профессиональный многоголосый - NewStudio -Русский

Озвучка 6: Профессиональный многоголосый - IdeaFilm -Русский

Озвучка 7: Профессиональный многоголосый - Profix.Media -Русский

Озвучка 8: Профессиональный многоголосый - Английский - Оригинал

Субтитры: : Russian, English, English SDH

ВНИМАНИЕ! Ненормативная лексика


MDB

Режиссер: Брэд Андерсон, Грант Харви, Джон Фоусет

В ролях: Брентон Туэйтс, Тиган Крофт, Анна Диоп, Линдси Горт, Минка Келли, Райан Поттер, Алан Ричсон, Каррен Уолтерс, Шеймус Девер, Бруно Бичир

В надежде остановить своего отца — древнего демона Тригона — обладательница невероятных способностей девушка Рэйвен обращается за помощью к Робину. Бывший напарник Бэтмена теперь сам вершит правосудие на улицах Готэма, но, чтобы остановить зло, Рэйвен и Робину понадобится подмога.



Качество :WEB-DLRip 1080p
Формат: MKV
Видео кодек: H264
Видео: 6782Кбит/сек,1920х960(2.000), в 23.976кадр/сек,AVC(NTSC) (Main@L4.1)(CABAC/4 Ref Frames)

Аудио Кодек:AC3

Аудио #1:AC3 192 Kbps, 48.0 KHz, 6 ch- Lostfilm -Русский

Аудио #2:AC3 , 192 Kbps, 48.0 KHz, 6 ch- Jaskier -Русский

Аудио #3:AC3 , 192 Kbps, 48.0 KHz, 6 ch- BaibaKo -Русский

Аудио #4:AC3 , 192 Kbps, 48.0 KHz, 6 ch- NewStudio -Русский

Аудио #5:AC3 , 192 Kbps, 48.0 KHz, 6 ch- Profix.Media -Русский

Аудио #6:AC3 , 192 Kbps, 48.0 KHz, 6 ch- IdeaFilm -Русский

Аудио #7:AC3 , 192 Kbps, 48.0 KHz, 6 ch- GoodPeoplei -Русский

Аудио #8: AC3, 384 Kbps, 48.0 KHz,6 ch - - English - Оригинал

Звуковая дорожка сделана путем наложения чистого голоса озвучивателей на центральный канал оригинальной дорожки. Качество идентично звуковой дорожке.


1 сезон 1 серия - Титаны - Titans
1 сезон 2 серия - Ястреб и Голубка - Hawk and Dove
1 сезон 3 серия - Истоки - Origins
1 сезон 4 серия - Роковой патруль - Doom Patrol
1 сезон 5 серия - Вместе - Together




Общее
Уникальный идентификатор : 121018123141810851659089805211829352089 (0x5B0B3E22B77CD59620D1F4D42C5D3699)
Полное имя : E:\Nikolai.Baranov & PIRATIYA\Титаны - Titans\TITANS_2018_S01_Н264_DD5.1_N.B_HD_1080_7xRus_Eng\Titans_S01E01_Н264_DD5.1_N.B_HD_1080_7xRus_Eng.mkv
Формат : Matroska
Версия формата : Version 4
Размер файла : 3,01 Гбайт
Продолжительность : 50 м. 42 с.
Общий поток : 8511 Кбит/сек
Название фильма : Titans 2018 S01E01 @ Nikolai.Baranov & PIRATIYA
Дата кодирования : UTC 2018-10-21 11:23:35
Программа кодирования : mkvmerge v27.0.0 ('Metropolis') 64-bit
Библиотека кодирования : libebml v1.3.6 + libmatroska v1.4.9

Видео
Идентификатор : 1
Формат : AVC
Формат/Информация : Advanced Video Codec
Профиль формата : Main@L4.1
Настройки формата : CABAC / 4 Ref Frames
Параметр CABAC формата : Да
Параметр RefFrames формата : 4 кадра
Идентификатор кодека : V_MPEG4/ISO/AVC
Продолжительность : 50 м. 41 с.
Битрейт : 6782 Кбит/сек
Ширина : 1920 пикселей
Высота : 960 пикселей
Соотношение сторон : 2,000
Режим частоты кадров : Постоянный
Частота кадров : 23,976 (24000/1001) кадра/сек
Стандарт вещания : NTSC
Цветовое пространство : YUV
Субдискретизация насыщенности : 4:2:0
Битовая глубина : 8 бит
Тип развёртки : Прогрессивная
Бит/(Пиксели*Кадры) : 0.153
Размер потока : 2,40 Гбайт (80%)
Заголовок : Titans_S01E01_Н264_DD5.1_N.B_HD_1080_7xRus_Eng
Язык : Russian
Default : Нет
Forced : Нет
Цветовой диапазон : Limited
Основные цвета : BT.709
Характеристики трансфера : BT.709
Коэффициенты матрицы : BT.709

Аудио #1
Идентификатор : 5
Формат : AC-3
Формат/Информация : Audio Coding 3
Коммерческое название : Dolby Digital
Идентификатор кодека : A_AC3
Продолжительность : 50 м. 41 с.
Вид битрейта : Постоянный
Битрейт : 192 Кбит/сек
Каналы : 6 каналов
Channel layout : L R C LFE Ls Rs
Частота : 48,0 КГц
Частота кадров : 31,250 кадров/сек (1536 SPF)
Битовая глубина : 16 бит
Метод сжатия : С потерями
Размер потока : 69,6 Мбайт (2%)
Заголовок : MVO LostFilm @DD5.1 AC3, 192 Kbps, 48.0 KHz, 6 ch
Язык : Russian
ServiceKind/String : Complete Main
Default : Да
Forced : Нет

Аудио #2
Идентификатор : 6
Формат : AC-3
Формат/Информация : Audio Coding 3
Коммерческое название : Dolby Digital
Идентификатор кодека : A_AC3
Продолжительность : 50 м. 41 с.
Вид битрейта : Постоянный
Битрейт : 192 Кбит/сек
Каналы : 6 каналов
Channel layout : L R C LFE Ls Rs
Частота : 48,0 КГц
Частота кадров : 31,250 кадров/сек (1536 SPF)
Битовая глубина : 16 бит
Метод сжатия : С потерями
Размер потока : 69,6 Мбайт (2%)
Заголовок : MVO ProfixMedia @DD5.1 AC3, 192 Kbps, 48.0 KHz, 6 ch
Язык : Russian
ServiceKind/String : Complete Main
Default : Нет
Forced : Нет

Аудио #3
Идентификатор : 7
Формат : AC-3
Формат/Информация : Audio Coding 3
Коммерческое название : Dolby Digital
Идентификатор кодека : A_AC3
Продолжительность : 50 м. 41 с.
Вид битрейта : Постоянный
Битрейт : 192 Кбит/сек
Каналы : 6 каналов
Channel layout : L R C LFE Ls Rs
Частота : 48,0 КГц
Частота кадров : 31,250 кадров/сек (1536 SPF)
Битовая глубина : 16 бит
Метод сжатия : С потерями
Размер потока : 69,6 Мбайт (2%)
Заголовок : MVO BaibaKo @DD5.1 AC3, 192 Kbps, 48.0 KHz, 6 ch
Язык : Russian
ServiceKind/String : Complete Main
Default : Нет
Forced : Нет

Аудио #4
Идентификатор : 8
Формат : AC-3
Формат/Информация : Audio Coding 3
Коммерческое название : Dolby Digital
Идентификатор кодека : A_AC3
Продолжительность : 50 м. 41 с.
Вид битрейта : Постоянный
Битрейт : 192 Кбит/сек
Каналы : 6 каналов
Channel layout : L R C LFE Ls Rs
Частота : 48,0 КГц
Частота кадров : 31,250 кадров/сек (1536 SPF)
Битовая глубина : 16 бит
Метод сжатия : С потерями
Размер потока : 69,6 Мбайт (2%)
Заголовок : MVO NewStudio @DD5.1 AC3, 192 Kbps, 48.0 KHz, 6 ch
Язык : Russian
ServiceKind/String : Complete Main
Default : Нет
Forced : Нет

Аудио #5
Идентификатор : 9
Формат : AC-3
Формат/Информация : Audio Coding 3
Коммерческое название : Dolby Digital
Идентификатор кодека : A_AC3
Продолжительность : 50 м. 41 с.
Вид битрейта : Постоянный
Битрейт : 192 Кбит/сек
Каналы : 6 каналов
Channel layout : L R C LFE Ls Rs
Частота : 48,0 КГц
Частота кадров : 31,250 кадров/сек (1536 SPF)
Битовая глубина : 16 бит
Метод сжатия : С потерями
Размер потока : 69,6 Мбайт (2%)
Заголовок : MVO IdeaFilm @DD5.1 AC3, 192 Kbps, 48.0 KHz, 6 ch
Язык : Russian
ServiceKind/String : Complete Main
Default : Нет
Forced : Нет

Аудио #6
Идентификатор : 10
Формат : AC-3
Формат/Информация : Audio Coding 3
Коммерческое название : Dolby Digital
Идентификатор кодека : A_AC3
Продолжительность : 50 м. 42 с.
Вид битрейта : Постоянный
Битрейт : 192 Кбит/сек
Каналы : 6 каналов
Channel layout : L R C LFE Ls Rs
Частота : 48,0 КГц
Частота кадров : 31,250 кадров/сек (1536 SPF)
Битовая глубина : 16 бит
Метод сжатия : С потерями
Размер потока : 69,6 Мбайт (2%)
Заголовок : MVO JASKiER @DD5.1 AC3, 192 Kbps, 48.0 KHz, 6 ch
Язык : Russian
ServiceKind/String : Complete Main
Default : Нет
Forced : Нет

Аудио #7
Идентификатор : 11
Формат : AC-3
Формат/Информация : Audio Coding 3
Коммерческое название : Dolby Digital
Идентификатор кодека : A_AC3
Продолжительность : 50 м. 42 с.
Вид битрейта : Постоянный
Битрейт : 192 Кбит/сек
Каналы : 6 каналов
Channel layout : L R C LFE Ls Rs
Частота : 48,0 КГц
Частота кадров : 31,250 кадров/сек (1536 SPF)
Битовая глубина : 16 бит
Метод сжатия : С потерями
Размер потока : 69,6 Мбайт (2%)
Заголовок : MVO GoodPeople @DD5.1 AC3, 192 Kbps, 48.0 KHz, 6 ch
Язык : Russian
ServiceKind/String : Complete Main
Default : Нет
Forced : Нет

Аудио #8
Идентификатор : 12
Формат : AC-3
Формат/Информация : Audio Coding 3
Коммерческое название : Dolby Digital
Идентификатор кодека : A_AC3
Продолжительность : 50 м. 41 с.
Вид битрейта : Постоянный
Битрейт : 384 Кбит/сек
Каналы : 6 каналов
Channel layout : L R C LFE Ls Rs
Частота : 48,0 КГц
Частота кадров : 31,250 кадров/сек (1536 SPF)
Битовая глубина : 16 бит
Метод сжатия : С потерями
Размер потока : 139 Мбайт (5%)
Заголовок : Original@DD5.1 AC3 ,384 Kbps, 48.0 KHz, 6 ch
Язык : English
ServiceKind/String : Complete Main
Default : Нет
Forced : Нет

Текст #1
Идентификатор : 2
Формат : UTF-8
Идентификатор кодека : S_TEXT/UTF8
Идентификатор кодека/Информация : UTF-8 Plain Text
Продолжительность : 49 м. 5 с.
Битрейт : 45 бит/сек
ElementCount : 391
Размер потока : 16,4 Кбайт (0%)
Заголовок : Rus
Язык : Russian
Default : Да
Forced : Нет

Текст #2
Идентификатор : 3
Формат : UTF-8
Идентификатор кодека : S_TEXT/UTF8
Идентификатор кодека/Информация : UTF-8 Plain Text
Продолжительность : 49 м. 38 с.
Битрейт : 54 бит/сек
ElementCount : 519
Размер потока : 19,8 Кбайт (0%)
Заголовок : Original - SDH
Язык : English
Default : Нет
Forced : Нет

Текст #3
Идентификатор : 4
Формат : UTF-8
Идентификатор кодека : S_TEXT/UTF8
Идентификатор кодека/Информация : UTF-8 Plain Text
Продолжительность : 47 м. 40 с.
Битрейт : 24 бит/сек
ElementCount : 331
Размер потока : 8,72 Кбайт (0%)
Заголовок : Original
Язык : English
Default : Нет
Forced : Нет

Меню
00:00:00.000 : :Глава 01 / :Глава 01 / :Глава 01 / :Глава 01 / :Глава 01 / :Глава 01 / :Глава 01 / :Глава 01 / :Глава 01 / :Глава 01 / :Глава 01 / :Глава 01




Сезон 1

Внимание! Раздача пополняется по мере выхода новых серий!



Раздача ведётся путём добавления новых серий; при каждом добавлении создётся новый торрент.
Чтобы начать докачку новой серии, пользователям необходимо сделать следующее:
1. остановить скачивание,
2. удалить старый торрент у себя из клиента (старые серии удалять не надо),
3. скачать новый торрент и запустить его у себя в клиенте вместо старого, при этом указать клиенту путь в старую папку, куда и должно происходить скачивание новых серий.

Ваш клиент при этом должен произвести хеширование (проверку) старой папки (если не производит сам - помогите ему сделать это), и будет докачивать только те серии которых у вас ещё нет. Старые серии при этом не удаляются, а продолжают раздаваться!

Eсли вы уже удалили старые серии, то предотвратить повторную закачку старых серий можно, отжав галочку в соответсвующих местах при запуске нового торрента. По возможности, желательно не удалять старые серии как можно дольше, чтобы релизёр не столько продолжал раздавать старые серии, а смог сконцентрироваться на новых.

Совет для тех, кто не хочет ждать перехеширования:
Создайте ещё одну папку рядом с папкой сериала (рядом, а не в ней!!!). Каждую новую серию после удачной загрузки копируйте в новую папку так чтобы ваша основная папка всегда была пуста. Когда ваш новый торрент предложит вам закачать все файлы, выберете только последнюю. Для сидирования же укажите адрес новой папки.

Как закачать отдельный файл из торрента или докачать ранее пропущенные файлы торрента!
1. Открыть торрент
2. Снять галки с тех файлов торрента, которые мы не хотим закачивать. Оставляем только на нужных нам файлах (файле).
3. Нажать О.К.

В клиенте utorrent

Инструкция

1) Открыть торрент


2) Снять галки с тех файлов торрента, которые мы не хотим закачивать:

* либо вручную, снимая с каждого файла галку( скрин №1)
* либо, нажав кнопку "Снять метки (Select None)", сняв сразу со всех файлов(скрин №2)
№1
№2
Оставляем только на нужных нам файлах (файле).
3)Нажать О.К






Внимание!!! 14.11. 2018. РАЗДАЧА ОБНОВЛЕНА. ПЕРЕРАЗДАЧА . ОБНОВИТЕ ТОРЕНТ ФАЙЛ. ПРИЯТНОГО ПРОСМОТРА . Поблагодарить:
ЯД: 410017546713876


Релиз от: Nikolai.Baranov & PIRATIYA







Время раздачи : 24/7

Этот торрент недоступен для скачивания без регистрации, однако доступен по публичной magnet-ссылке (источники с публичных трекеров). Перед использованием ссылки прочтите, пожалуйста Пользовательское соглашение, а также как можно дольше оставайтесь на раздаче! Для того, чтобы скачать сам торрент-файл (который видит больше источников), а также для того, чтобы поблагодарить релизера, вам необходимо зарегистрироваться. Если регистрироваться лень - вы можете также попробовать скачать релиз по нашим партнерским ссылкам ниже. Кроме того, зарегистрированным пользователям не показывается всплывающая реклама при скачивании.

[underverse.name].t116789.torrent
Трекер: Зарегистрирован   [ 14.11.2018 07:31 ]  

Статус: T временная (by Паукан at 14.11.2018 16:40)
Поблагодарили: пока никто не поблагодарил...
Тип торрента: публичный - доступные источники с открытых трекеров: 
Размер: 13,9 GB (занимает 3,18 DVDR, для записи нужно 4 болванки DVDR/RW)
 
 
Похожие темы
Форум Тема Автор Торрент Отв. Посл. сооб.
* Зарубежные сериалы Титаны/ Titans (Сезон 1, Серия 1-5 из 13 )(Брэд Андерсон, Грант Харви) [2018, Фантастика, фэнтези, боевик, приключения, WEB-DLRip 400p][ Lostfilm+Jaskier+BaibaKО+NewStudio+Profix.Media+IdeaFilm+GoodPe... Nikolai.Baranov
2 | 1

0 | 572

0

25.10.2018 19:37

T Зарубежные сериалы [BD / Remux / BDRip / WEB-DL / HDTV 1080/720р] Титаны/ Titans (Сезон 1, Серия 1-5 из 13 )(Брэд Андерсон, Грант Харви) [2018, Фантастика, фэнтези, боевик, приключения, WEB-DLRip 720p][ Lostfilm+Jaskier+BaibaKО+NewStudio+Profix.Media+IdeaFilm+GoodPe... Nikolai.Baranov
2 | 0

0 | 371

1

24.10.2018 11:20


Яндекс.Метрика powered by Sphinx


В Н И М А Н И Е
Сайт не распространяет и не хранит электронные версии произведений, а лишь бесплатно и без коммерческой выгоды (не требуя взамен платы,
SMS и т.д.) предоставляет доступ к создаваемому пользователями каталогу ссылок на торрент-файлы, которые содержат только списки хеш-сумм.
Убедительная просьба с жалобами обращаться напрямую к пользователю, разместившему торрент файл.

Вверх