Loading...
Error

Человек-муравей и Оса / Ant-Man and the Wasp (Пейтон Рид) [2018 г., Фантастика, боевик, приключения, BDRip 1080p] Dub + Sub (Rus) + hardsub (Rus)

Статистика раздачи
Размер:  7,73 GB   |    Зарегистрирован:  4 дня   |    Скачан:  6 раз

Полного источника не было: 6 часов

Сидов:  0  |  0 KB/s  ]   Личеров:  0  |  0 KB/s  ]

* - сиды/пиры с внешних источников

   
 
Автор Сообщение

90ytr90 

08-Ноя-2018 16:33

Человек-муравей и Оса / Ant-Man and the Wasp

Анонсы 1080p от qqss44
Информация о фильме
Название: Человек-муравей и Оса
Оригинальное название: Ant-Man and the Wasp
Год выхода: 2018
Жанр: Фантастика, боевик, приключения
Режиссёр: Пейтон Рид

В ролях: Пол Радд, Эванджелин Лилли, Майкл Дуглас, Майкл Пенья, Уолтон Гоггинс, Бобби Каннавейл, Джуди Грир, Ти Ай, Давид Дастмалчян, Ханна Джон-Кэймен, Эбби Райдер Фортсон

Описание:
Скотт Лэнг, известный также, как Человек-Муравей уже заслужил право оказаться в команде Мстителей, но желание быть ближе к собственной дочке удерживает его в родном Сан-Франциско - до тех пор, пока доктор Хэнк Пим, создавший когда-то изменяющий размеры своего владельца чудо-костюм, не призывает Скотта присоединиться к новой, опасной миссии. А помогать в противостоянии с коварным врагом Человеку-Муравью будет новая напарница - Оса.
Страна: США
Студия: Marvel Studios
Продолжительность: 01:58:06
Перевод: Дублированный | Лицензия
Файл
Формат: MKV, BDRip 1080p
Видео: MPEG-4 AVC, 8755 Кбит/с, 1920x804
Aудио#1: [RUS] AC3 | 48 KHz | 5.1 (Front: L С R Side: L R) + LFE | ~640 kbps
Субтитры: русские форсированные (стилизованные, анимированные, вшиты в видео) + полные
Релиз от:
Rip by qqss44 MegaPeer

Общее
Уникальный идентификатор : 237288954952089604411704314054963530549 (0xB28430BCD6D944C899EAF44BF8768B35)
Полное имя : H:Ant-Man.and.the.Wasp.(2018).BDRip-1080p.MegaPeer.(qqss44).mkv
Формат : Matroska
Версия формата : Version 2
Размер файла : 7,73 Гбайт
Продолжительность : 1 ч. 58 м.
Общий поток : 9367 Кбит/сек
Название фильма : Ant-Man.and.the.Wasp.(2018).BDRip-1080p.MegaPeer.(qqss44)
Дата кодирования : UTC 2018-11-08 13:51:22
Программа кодирования : mkvmerge v7.8.0 ('River Man') 32bit built on Apr 3 2015 12:11:22
Библиотека кодирования : libebml v1.3.1 + libmatroska v1.4.2
Видео
Идентификатор : 1
Формат : AVC
Формат/Информация : Advanced Video Codec
Профиль формата : High@L4.1
Параметр CABAC формата : Да
Параметр ReFrames формата : 5 кадров
Идентификатор кодека : V_MPEG4/ISO/AVC
Продолжительность : 1 ч. 58 м.
Битрейт : 8755 Кбит/сек
Ширина : 1920 пикселей
Высота : 804 пикселя
Соотношение сторон : 2,40:1
Режим частоты кадров : Постоянный
Частота кадров : 23,976 (24000/1001) кадра/сек
Цветовое пространство : YUV
Субдискретизация насыщенности : 4:2:0
Битовая глубина : 8 бит
Тип развёртки : Прогрессивная
Бит/(Пиксели*Кадры) : 0.237
Размер потока : 7,05 Гбайт (91%)
Библиотека кодирования : x264 core 152 r2851 ba24899
Настройки программы : cabac=1 / ref=5 / deblock=1:-3:-3 / analyse=0x3:0x113 / me=umh / subme=11 / psy=1 / psy_rd=1.00:0.00 / mixed_ref=1 / me_range=32 / chroma_me=1 / trellis=2 / 8x8dct=1 / cqm=0 / deadzone=21,11 / fast_pskip=0 / chroma_qp_offset=-2 / threads=12 / lookahead_threads=2 / sliced_threads=0 / nr=0 / decimate=0 / interlaced=0 / bluray_compat=0 / constrained_intra=0 / bframes=8 / b_pyramid=2 / b_adapt=2 / b_bias=0 / direct=3 / weightb=1 / open_gop=0 / weightp=2 / keyint=250 / keyint_min=23 / scenecut=40 / intra_refresh=0 / rc_lookahead=40 / rc=2pass / mbtree=0 / bitrate=8755 / ratetol=1.0 / qcomp=0.70 / qpmin=0 / qpmax=69 / qpstep=4 / cplxblur=20.0 / qblur=0.5 / vbv_maxrate=50000 / vbv_bufsize=62500 / nal_hrd=none / filler=0 / ip_ratio=1.40 / pb_ratio=1.30 / aq=3:0.70
Язык : English
Default : Да
Forced : Нет
Аудио
Идентификатор : 2
Формат : AC-3
Формат/Информация : Audio Coding 3
Расширение режима : CM (complete main)
Параметр Endianness формата : Big
Идентификатор кодека : A_AC3
Продолжительность : 1 ч. 58 м.
Вид битрейта : Постоянный
Битрейт : 640 Кбит/сек
Каналы : 6 каналов
Расположение каналов : Front: L C R, Side: L R, LFE
Частота : 48,0 КГц
Частота кадров : 31,250 кадров/сек (1536 spf)
Метод сжатия : С потерями
Размер потока : 541 Мбайт (7%)
Язык : Russian
Default : Да
Forced : Нет
Текст
Идентификатор : 3
Формат : UTF-8
Идентификатор кодека : S_TEXT/UTF8
Идентификатор кодека/Информация : UTF-8 Plain Text
Заголовок : FULL
Язык : Russian
Default : Нет
Forced : Нет
Меню
00:00:00.000 : en:00:00:00.000
00:04:03.034 : en:00:04:03.034
00:10:16.407 : en:00:10:16.407
00:13:39.861 : en:00:13:39.861
00:21:25.451 : en:00:21:25.451
00:29:07.829 : en:00:29:07.829
00:36:09.084 : en:00:36:09.084
00:40:56.579 : en:00:40:56.579
00:50:17.431 : en:00:50:17.431
00:58:59.077 : en:00:58:59.077
01:04:56.434 : en:01:04:56.434
01:12:54.287 : en:01:12:54.287
01:18:32.124 : en:01:18:32.124
01:24:44.913 : en:01:24:44.913
01:29:47.340 : en:01:29:47.340
01:36:16.270 : en:01:36:16.270
01:43:35.334 : en:01:43:35.334
01:46:59.830 : en:01:46:59.830

Этот торрент недоступен для скачивания без регистрации, однако доступен по публичной magnet-ссылке (источники с публичных трекеров). Перед использованием ссылки прочтите, пожалуйста Пользовательское соглашение, а также как можно дольше оставайтесь на раздаче! Для того, чтобы скачать сам торрент-файл (который видит больше источников), а также для того, чтобы поблагодарить релизера, вам необходимо зарегистрироваться. Если регистрироваться лень - вы можете также попробовать скачать релиз по нашим партнерским ссылкам ниже. Кроме того, зарегистрированным пользователям не показывается всплывающая реклама при скачивании.

[underverse.name].t118390.torrent
Трекер: Зарегистрирован   [ 08.11.2018 16:33 ]  

Статус: * не проверено
Поблагодарили: пока никто не поблагодарил...
Тип торрента: публичный - доступные источники с открытых трекеров: 
Размер: 7,73 GB (занимает 1,77 DVDR, для записи нужно 2 болванки DVDR/RW)
 
 
Похожие темы
Форум Тема Автор Торрент Отв. Посл. сооб.
Зарубежное кино [DVDRip, Low-Res HDRip, и т.д.] Человек-муравей / Ant-Man (Пейтон Рид / Peyton Reed) [2015 г., фантастика, боевик, комедия, приключения, BDRip-AVC] Dub + Sub (Rus, Eng) 90ytr90
243 | 4

0 | 1748

39

28.01.2016 19:49

Зарубежное кино [DVDRip, Low-Res HDRip, и т.д.] Человек-муравей / Ant-Man (Пейтон Рид / Peyton Reed) [2015 г., фантастика, боевик, комедия, приключения, BDRip] Dub 90ytr90
33 | 0

0 | 1020

30

28.01.2016 19:53

Зарубежное кино [DVDRip, Low-Res HDRip, и т.д.] Человек-муравей / Ant-Man (Пейтон Рид / Peyton Reed) [2015 г., фантастика, боевик, комедия, приключения, BDRip-AVC] Dub + Original (Eng) + Sub (Rus, Eng) 90ytr90
83 | 0

0 | 1016

10

28.01.2016 19:59

Зарубежное кино [DVDRip, Low-Res HDRip, и т.д.] Человек-муравей / Ant-Man (Пейтон Рид / Peyton Reed) [2015 г., фантастика, боевик, комедия, приключения, BDRip] Dub + Original (Eng) + Sub (Rus, Eng) 90ytr90
17 | 0

0 | 912

4

28.01.2016 20:07

Зарубежное кино [DVDRip, Low-Res HDRip, и т.д.] Человек-муравей / Ant-Man (Пейтон Рид / Peyton Reed) [2015 г., фантастика, боевик, комедия, приключения, BDRip-AVC] Dub + Original (Eng) + Sub (Rus, Eng) 90ytr90
18 | 0

0 | 1083

18

28.01.2016 20:13

Зарубежное кино [DVDRip, Low-Res HDRip, и т.д.] Человек-муравей / Ant-Man (Пейтон Рид / Peyton Reed) [2015 г., фантастика, боевик, комедия, приключения, HDRip] Dub 90ytr90
30 | 0

0 | 854

16

30.01.2016 16:40

T Зарубежное кино [DVDRip, Low-Res HDRip, и т.д.] Человек-муравей и Оса / Ant-Man and the Wasp (Пейтон Рид) [2018 г., фантастика, боевик, приключения, WEBRip] Dub (звук с TS) makkol
258 | 0

0 | 7335

65

03.09.2018 14:51

T Зарубежное кино [DVDRip, Low-Res HDRip, и т.д.] Человек-муравей и Оса / Ant-Man and the Wasp (Пейтон Рид) [2018 г., фантастика, боевик, приключения, WEBRip] Dub (Line) makkol
63 | 0

0 | 1127

41

01.10.2018 15:42

T Зарубежное кино [DVDRip, Low-Res HDRip, и т.д.] Человек-муравей и Оса / Ant-Man and the Wasp (Пейтон Рид) [2018 г., фантастика, боевик, приключения, HDRip-AVC] DUB [iTunes] + Sub Parallelo
65 | 3

0 | 544

31

05.10.2018 04:22

T Зарубежное кино [DVDRip, Low-Res HDRip, и т.д.] Человек-муравей и Оса / Ant-Man and the Wasp (Пейтон Рид) [2018 г., фантастика, боевик, приключения, HDRip] Dub (iTunes) makkol
87 | 3

0 | 2874

67

05.10.2018 09:53


Яндекс.Метрика powered by Sphinx


В Н И М А Н И Е
Сайт не распространяет и не хранит электронные версии произведений, а лишь бесплатно и без коммерческой выгоды (не требуя взамен платы,
SMS и т.д.) предоставляет доступ к создаваемому пользователями каталогу ссылок на торрент-файлы, которые содержат только списки хеш-сумм.
Убедительная просьба с жалобами обращаться напрямую к пользователю, разместившему торрент файл.

Вверх