Loading...
Error

(Classic) VA - The Number One Classical Album (2CD) (2008) [FLAC (Image+.CUE), lossless]

Статистика раздачи
Размер:  772 MB   |    Зарегистрирован:  8 лет 4 месяца   |    Скачан:  10 раз

Полного источника не было: 9 месяцев

Сидов:  0  |  0 KB/s  ]   Личеров:  0  |  0 KB/s  ]

* - сиды/пиры с внешних источников

   
 
Автор Сообщение

Bratok Пол:Муж

03-Июл-2010 14:25

VA - The Number One Classical Album (2CD)

Жанр: Classic
Год выпуска: 2008
Производитель диска: Германия
Аудиокодек: FLAC
Тип рипа: Image+.CUE
Битрейт аудио: lossless
Продолжительность: CD1 - 01:16:41, CD2 - 01:13:00


Релиз группы:
1. Sancta Maria Кэтрин Дженкинс
2. Con Te Partiro (Time To Say Goodbye) Андреа Бочелли
3. Caruso "Il Divo"
4. Nessun Dorma Лучано Паваротти
5. Sancte Deus (Nimrod) "All Angels"
6. La Califfa Расселл Уотсон
7. Where Do I Begin Лесли Гарретт
8. On My Heart Майк Олдфилд
9. Going Home Уилл Мартин
10. Flow My Tears Стинг
11. Shenandoah Хейли Уэстенра
12. The Prayer "RyanDan"
13. Briony (Atonement OST) Дарио Марианелли
14. Amapola Хуан Диего Флорес
15. Non Ti Scordar Di Me Жон Кристос
16. Moonlight Serenade (Pirates Of The Caribbean Trilogy OST) Ганс Циммер
17. Core 'ngrato Элфи Бо
18. Bess, You Is My Woman Now Никола Бенедетти
19. Primavera Людовико Эйнауди
20. Sabre Dance Ванесса Мэй
Exact Audio Copy V0.99 prebeta 5 from 4. May 2009

EAC extraction logfile from 3. July 2010, 16:04

Various / The Number 1 Classical Album 2008 Disk 1

Used drive : TSSTcorpCDDVDW SH-S202J Adapter: 0 ID: 0

Read mode : Secure
Utilize accurate stream : Yes
Defeat audio cache : Yes
Make use of C2 pointers : No

Read offset correction : 6
Overread into Lead-In and Lead-Out : No
Fill up missing offset samples with silence : Yes
Delete leading and trailing silent blocks : No
Null samples used in CRC calculations : Yes
Used interface : Native Win32 interface for Win NT & 2000

Used output format : User Defined Encoder
Selected bitrate : 128 kBit/s
Quality : High
Add ID3 tag : No
Command line compressor : C:\Program Files\Exact Audio Copy\Flac\flac.exe
Additional command line options : -8 -V %s

TOC of the extracted CD

Track | Start | Length | Start sector | End sector
---------------------------------------------------------
1 | 0:00.00 | 3:49.57 | 0 | 17231
2 | 3:49.57 | 4:12.23 | 17232 | 36154
3 | 8:02.05 | 3:56.00 | 36155 | 53854
4 | 11:58.05 | 2:58.09 | 53855 | 67213
5 | 14:56.14 | 3:24.11 | 67214 | 82524
6 | 18:20.25 | 4:13.72 | 82525 | 101571
7 | 22:34.22 | 4:29.06 | 101572 | 121752
8 | 27:03.28 | 2:26.13 | 121753 | 132715
9 | 29:29.41 | 4:25.08 | 132716 | 152598
10 | 33:54.49 | 4:39.09 | 152599 | 173532
11 | 38:33.58 | 3:20.71 | 173533 | 188603
12 | 41:54.54 | 4:26.34 | 188604 | 208587
13 | 46:21.13 | 1:43.63 | 208588 | 216375
14 | 48:05.01 | 4:21.39 | 216376 | 235989
15 | 52:26.40 | 3:12.43 | 235990 | 250432
16 | 55:39.08 | 1:19.25 | 250433 | 256382
17 | 56:58.33 | 2:56.12 | 256383 | 269594
18 | 59:54.45 | 3:22.65 | 269595 | 284809
19 | 63:17.35 | 7:23.55 | 284810 | 318089
20 | 70:41.15 | 6:00.48 | 318090 | 345137

Range status and errors

Selected range

Filename E:\музыка на торент 2\The Number 1 Classical Album 2008\CD1\Various - The Number 1 Classical Album 2008 Disk 1.wav

Peak level 100.0 %
Range quality 100.0 %
Test CRC 02E93FBE
Copy CRC 02E93FBE
Copy OK

No errors occurred

AccurateRip summary
Track 1 accurately ripped (confidence 6) [029B67C3]
Track 2 accurately ripped (confidence 6) [C358D5D8]
Track 3 accurately ripped (confidence 6) [63382E41]
Track 4 accurately ripped (confidence 6) [10D3F653]
Track 5 accurately ripped (confidence 6) [B8706DCD]
Track 6 accurately ripped (confidence 6) [6AB848B3]
Track 7 accurately ripped (confidence 6) [4B44D327]
Track 8 accurately ripped (confidence 6) [CD98CABA]
Track 9 accurately ripped (confidence 6) [9F2962C0]
Track 10 accurately ripped (confidence 6) [1D24BF1D]
Track 11 accurately ripped (confidence 6) [6943C458]
Track 12 accurately ripped (confidence 6) [6AE84DC3]
Track 13 accurately ripped (confidence 6) [7B305280]
Track 14 accurately ripped (confidence 6) [718A250D]
Track 15 accurately ripped (confidence 6) [AC108769]
Track 16 accurately ripped (confidence 6) [E42A7565]
Track 17 accurately ripped (confidence 6) [C980E751]
Track 18 accurately ripped (confidence 5) [144EFF7A]
Track 19 accurately ripped (confidence 6) [994C7533]
Track 20 accurately ripped (confidence 6) [5DD33DF1]
All tracks accurately ripped

End of status report
AUDIOCHECKER v2.0 beta (build 457) - by Dester - opdester@freemail.hu
~~~~~~~~~~~~~~~~~~~~~~~~~~~~~~~~~~
-=== НЕ РЕДАКТИРУЙТЕ ЭТОТ ФАЙЛ! ===-

Путь: ...\CD1

1 -=- Various - The Number 1 Classical Album 2008 Disk 1.flac -=- CDDA (100%)

145034580
1. Amazing Grace The Fron Male Voice Choir
2. Nella Fantasia Пол Поттс
3. In Paradisum (From "Gladiator") "Blake"
4. Tonight Хейли Уэстенра, Витторио Григоло
5. Volare "G4"
6. World In Union 2007 "All Stars"
7. Sailing The Royal Scots Dragoon Guards
8. My Little Welsh Home Алед Джонс
9. Eternal Source Of Light Divine Элин Манахан Томас
10. Towards The Light Патрик Хоес
11. Toreador Song Брин Терфел
12. Pie Jesu Джулиан Ллойд Уэббер
13. Be My Love Марио Ланца
14. Ave Maris Stella "The Sixteen"
15. Quando Men Vo Анна Нетребко
16. Traumerei Ланг Ланг
17. Inspector Morse Theme Эмма Джонсон
18. Romanza Cortes
19. Flight Of The Bumble Bee Дэвид Гарретт
20. Have Yourself A Merry Little Christmas "The Choirboys"
Exact Audio Copy V0.99 prebeta 5 from 4. May 2009

EAC extraction logfile from 3. July 2010, 16:29

Various / The Number 1 Classical Album 2008 Disk 2

Used drive : TSSTcorpCDDVDW SH-S202J Adapter: 0 ID: 0

Read mode : Secure
Utilize accurate stream : Yes
Defeat audio cache : Yes
Make use of C2 pointers : No

Read offset correction : 6
Overread into Lead-In and Lead-Out : No
Fill up missing offset samples with silence : Yes
Delete leading and trailing silent blocks : No
Null samples used in CRC calculations : Yes
Used interface : Native Win32 interface for Win NT & 2000

Used output format : User Defined Encoder
Selected bitrate : 128 kBit/s
Quality : High
Add ID3 tag : No
Command line compressor : C:\Program Files\Exact Audio Copy\Flac\flac.exe
Additional command line options : -8 -V %s

TOC of the extracted CD

Track | Start | Length | Start sector | End sector
---------------------------------------------------------
1 | 0:00.00 | 3:48.34 | 0 | 17133
2 | 3:48.34 | 4:26.30 | 17134 | 37113
3 | 8:14.64 | 4:33.51 | 37114 | 57639
4 | 12:48.40 | 5:40.05 | 57640 | 83144
5 | 18:28.45 | 3:16.22 | 83145 | 97866
6 | 21:44.67 | 4:31.50 | 97867 | 118241
7 | 26:16.42 | 3:57.02 | 118242 | 136018
8 | 30:13.44 | 2:34.25 | 136019 | 147593
9 | 32:47.69 | 3:50.73 | 147594 | 164916
10 | 36:38.67 | 3:36.71 | 164917 | 181187
11 | 40:15.63 | 3:49.20 | 181188 | 198382
12 | 44:05.08 | 5:18.36 | 198383 | 222268
13 | 49:23.44 | 3:30.19 | 222269 | 238037
14 | 52:53.63 | 3:10.73 | 238038 | 252360
15 | 56:04.61 | 2:36.66 | 252361 | 264126
16 | 58:41.52 | 3:15.49 | 264127 | 278800
17 | 61:57.26 | 2:24.18 | 278801 | 289618
18 | 64:21.44 | 3:47.54 | 289619 | 306697
19 | 68:09.23 | 1:20.08 | 306698 | 312705
20 | 69:29.31 | 3:31.03 | 312706 | 328533

Range status and errors

Selected range

Filename E:\музыка на торент 2\The Number 1 Classical Album 2008\CD2\Various - The Number 1 Classical Album 2008 Disk 2.wav

Peak level 100.0 %
Range quality 100.0 %
Test CRC 4A08066B
Copy CRC 4A08066B
Copy OK

No errors occurred

AccurateRip summary
Track 1 accurately ripped (confidence 4) [E954216F]
Track 2 accurately ripped (confidence 4) [4BCD81D2]
Track 3 accurately ripped (confidence 4) [F7D7FBE5]
Track 4 accurately ripped (confidence 4) [1390AF5F]
Track 5 accurately ripped (confidence 4) [67072842]
Track 6 accurately ripped (confidence 4) [6D0A8DBD]
Track 7 accurately ripped (confidence 4) [9BAFDFC8]
Track 8 accurately ripped (confidence 4) [37C71C06]
Track 9 accurately ripped (confidence 4) [E500DCA3]
Track 10 accurately ripped (confidence 4) [3EA98744]
Track 11 accurately ripped (confidence 4) [56D14272]
Track 12 accurately ripped (confidence 4) [0DB8293C]
Track 13 accurately ripped (confidence 4) [FE57190C]
Track 14 accurately ripped (confidence 4) [621FF856]
Track 15 accurately ripped (confidence 4) [3FA642B0]
Track 16 accurately ripped (confidence 4) [F6114871]
Track 17 accurately ripped (confidence 4) [AC77191F]
Track 18 accurately ripped (confidence 4) [29865E7B]
Track 19 accurately ripped (confidence 4) [388176BB]
Track 20 accurately ripped (confidence 4) [6CB691C8]
All tracks accurately ripped

End of status report
AUDIOCHECKER v2.0 beta (build 457) - by Dester - opdester@freemail.hu
~~~~~~~~~~~~~~~~~~~~~~~~~~~~~~~~~~
-=== НЕ РЕДАКТИРУЙТЕ ЭТОТ ФАЙЛ! ===-

Путь: ...\CD2

1 -=- Various - The Number 1 Classical Album 2008 Disk 2.flac -=- CDDA (100%)

144981332

Этот торрент недоступен для скачивания без регистрации, однако доступен по публичной magnet-ссылке (источники с публичных трекеров). Перед использованием ссылки прочтите, пожалуйста Пользовательское соглашение, а также как можно дольше оставайтесь на раздаче! Для того, чтобы скачать сам торрент-файл (который видит больше источников), а также для того, чтобы поблагодарить релизера, вам необходимо зарегистрироваться. Если регистрироваться лень - вы можете также попробовать скачать релиз по нашим партнерским ссылкам ниже. Кроме того, зарегистрированным пользователям не показывается всплывающая реклама при скачивании.

[underverse.su].t10869.torrent
Трекер: Зарегистрирован   [ 03.07.2010 14:29 ]  

Статус: проверено (by Bratok at 03.07.2010 14:32)
Поблагодарили: 6 человек
Тип торрента: публичный - доступные источники с открытых трекеров: 
Размер: 772 MB (занимает 0,17 DVDR, для записи нужно 1 болванка DVDR/RW)
 
 
Похожие темы
Форум Тема Автор Торрент Отв. Посл. сооб.
Сборники (Classic) VA - Шедевры Классики в современной обработке (2011) [MP3, 320 kbps CBR] Боцман
0 | 0

1 | 408

10

24.03.2018 15:33

Архив (HQ классическая музыка) (Classic) Антонио Вивальди - Времена года (1995) Английский камерный оркестр [FLAC (Image+.CUE), Lossless] Floyd
0 | 0

6 | 2455

0

03.05.2013 22:17

Bratok Пол:Муж

03-Июл-2010 14:31

Если нужны сканы,пишите в личку. :)

25-Май-2018 15:50

Топик был перенесен из форума Сборники в форум Архив (HQ классическая музыка)


[cron robot]
 

Яндекс.Метрика powered by Sphinx


В Н И М А Н И Е
Сайт не распространяет и не хранит электронные версии произведений, а лишь бесплатно и без коммерческой выгоды (не требуя взамен платы,
SMS и т.д.) предоставляет доступ к создаваемому пользователями каталогу ссылок на торрент-файлы, которые содержат только списки хеш-сумм.
Убедительная просьба с жалобами обращаться напрямую к пользователю, разместившему торрент файл.

Вверх