Loading...
Error

Двойник (Контрмир, По ту сторону) / Counterpart (Сезон 2, Серия 1 - 10 из 10 )( Алик Сахаров, Мортен Тильдум) [2018, Фантастика, триллер, драма , WEB-DLRip 1080p][ Lostfilm+Кириллица+BaibaKo+ProfixMedia+NewStudio+Eng]+[Subs ENG+Rus]

Статистика раздачи
Размер:  32,3 GB   |    Зарегистрирован:  22 дня   |    Скачан:  0 раз

Полного источника не было: 2 часа 27 минут

Сидов:  0  |  0 KB/s  ]   Личеров:  0  |  0 KB/s  ]

* - сиды/пиры с внешних источников

   
 
Автор Сообщение

Nikolai.Baranov Пол:Муж

15-Дек-2018 09:27





Двойник (Контрмир, По ту сторону) / Counterpart Сезон 2, Серия 1 -10 из 10 - Полный Комплект



Год выпуска: 2018 - 2019
Выпущено: США , Anonymous Content
Жанр:Фантастика, триллер, драма
Продолжительность: 00:57:00
Сезон:2
Серия: 1 -10
Количество серий в сезоне: 10

Озвучка 1: - Профессиональный многоголосый -Lostfilm- Русский

Озвучка2: Профессиональный многоголосый - JКириллица -Русский

Озвучка 3: Профессиональный многоголосый - BaibaKo -Русский

Озвучка 4: Профессиональный многоголосый - Profix.Media -Русский

Озвучка 5: Профессиональный многоголосый - NewStudio -Русский

Озвучка 6: Профессиональный многоголосый - AlexFilm -Русский

Озвучка 7: Профессиональный многоголосый - Jaskier -Русский

Озвучка 8: Профессиональный многоголосый - TVShows -Русский

Озвучка 9: Профессиональный многоголосый - Английский - Оригинал

Субтитры: : Russian, English SDH

Релиз Без Рекламы

Официальный сайт

MDB

Режиссер: Алик Сахаров, Мортен Тильдум

В ролях: Дж.К. Симмонс, Гарри Ллойд, Назанин Бониади, Оливия Уильямс, Сара Серайокко, Кеннет Чои, Ульрих Томсен, Николас Пиннок, Бернхард Форхер

Говард Силк (Дж.К. Симмонс) — заурядный, ничем не примечательный клерк в ООН. Целыми днями он передает зашифрованные сообщения другому сотруднику, даже не понимая, какую роль играет в общей системе. Путь наверх по карьерной лестнице для него закрыт: Говард всех устраивает на своем месте. Начальство и коллеги бесстыдно пользуются безотказностью и добродушием сослуживца. Но для Силка все резко меняется, когда однажды в агентство приходит не кто иной, как его полный двойник, заявляющий, что он будет сотрудничать только с Говардом. Высшее руководство неохотно посвящает своего работника в то, что на самом деле их организация охраняет вход в параллельную вселенную, который был открыт еще во времена Холодной войны. Обычно двойники не контактируют друг с другом, но сейчас дело другое — только Силк способен помочь своему альтернативному «я» поймать опасную преступницу, сбежавшую с Обратной стороны и истребляющую людей в нашем мире. Чтобы предотвратить новые убийства, разгадать ее план и не дать альтернативным реальностям пересечься, двум Говардам Силкам необходимо научиться действовать сообща. Это оказывается не так-то просто: идентичные внешне, они совершенно отличаются по характеру, социальному статусу и мышлению. Так судьба даже не одного, а нескольких миров оказывается в руках человека, который в первую очередь должен договориться с самим собой…



Качество :WEB-DLRip 1080p
Формат: MKV
Видео кодек: H264
Видео: 4804Кбит/сек,1920х1080(16.9),в 23.976кадр/сек,AVC (High@L4)(CABAC/4 Ref Frames)

Аудио Кодек:AC3

Аудио #1:AC3 384 Kbps, 48.0 KHz, 6 ch- Lostfilm -Русский

Аудио #2:AC3 , 384 Kbps, 48.0 KHz, 6 ch- Кириллица -Русский

Аудио #3:AC3 , 384 Kbps, 48.0 KHz, 6 ch- BaibaKo -Русский

Аудио #4:AC3 , 384 Kbps, 48.0 KHz, 6 ch- Profix.Media -Русский

Аудио #5:AC3 , 384 Kbps, 48.0 KHz, 6 ch- NewStudio -Русский

Аудио #6:AC3 , 384 Kbps, 48.0 KHz, 6 ch- AlexFilm -Русский

Аудио #7:AC3 , 384 Kbps, 48.0 KHz, 6 ch- Jaskier -Русский

Аудио #8:AC3 , 384 Kbps, 48.0 KHz, 6 ch- TVShows -Русский

Аудио #9: AC3, 640 Kbps, 48.0 KHz,6 ch - - English - Оригинал

Звуковая дорожка сделана путем наложения чистого голоса озвучивателей на центральный канал оригинальной дорожки. Качество идентично звуковой дорожке.


Ориентировочный график появления новых серий на сайте:
Внимание! График ориентировочный, выход новой серии может быть перенесён из-за непредвиденных обстоятельств. График выхода серий в оригинале можно посмотреть на imdb или tv.com


2 сезон 1 серия - Изнутри - Inside Out
2 сезон 2 серия - Снаружи - Outside In
2 сезон 3 серия - Что-то позаимствованное - Something Borrowed
2 сезон 4 серия - Точка расхождения - Point of Departure
2 сезон 5 серия - Марионетки - Shadow Puppets
2 сезон 6 серия - Города-близнецы - Twin Cities
2 сезон 7 серия - Обрезать нити - No Strings Attached
2 сезон 8 серия - Пришедший с холода - In from the Cold
2 сезон 9 серия - Сам с собой - You to You
2 сезон 10 серия - Лучшие ангелы - Better Angels




Общее
Уникальный идентификатор : 315295429191506930650045203943304954706 (0xED33B0DAF1E87758EDF9D39D8E4B8352)
Полное имя : E:\Nikolai.Baranov & PIRATIYA\Контрмир (Двойник, По ту сторону) - Counterpart\Counterpart _2018_S02_Н264_DD5.1_N.B_HD_1080_4xRus_Eng\Counterpart_S02E01_Н264_DD5.1_N.B_HD_1080_4xRus_Eng.mkv
Формат : Matroska
Версия формата : Version 4
Размер файла : 3,47 Гбайт
Продолжительность : 58 м. 21 с.
Общий поток : 8509 Кбит/сек
Название фильма : Counterpart 2018 S02Е01 @ Nikolai.Baranov & PIRATIYA
Дата кодирования : UTC 2019-01-05 07:31:44
Программа кодирования : mkvmerge v29.0.0 ('Like It Or Not') 64-bit
Библиотека кодирования : libebml v1.3.6 + libmatroska v1.4.9
Обложка : Yes
Attachments : cover.counterpart.jpg

Видео
Идентификатор : 1
Формат : AVC
Формат/Информация : Advanced Video Codec
Профиль формата : High@L4
Настройки формата : CABAC / 4 Ref Frames
Параметр CABAC формата : Да
Параметр RefFrames формата : 4 кадра
Идентификатор кодека : V_MPEG4/ISO/AVC
Продолжительность : 58 м. 21 с.
Битрейт : 4804 Кбит/сек
Ширина : 1920 пикселей
Высота : 1080 пикселей
Соотношение сторон : 16:9
Режим частоты кадров : Постоянный
Частота кадров : 23,976 (24000/1001) кадра/сек
Цветовое пространство : YUV
Субдискретизация насыщенности : 4:2:0
Битовая глубина : 8 бит
Тип развёртки : Прогрессивная
Бит/(Пиксели*Кадры) : 0.097
Размер потока : 1,96 Гбайт (56%)
Заголовок : Counterpart_S02E01_Н264_DD5.1_N.B_HD_1080_4xRus_Eng
Язык : Russian
Default : Нет
Forced : Нет
Цветовой диапазон : Limited
Основные цвета : BT.709
Характеристики трансфера : BT.709
Коэффициенты матрицы : BT.709

Аудио #1
Идентификатор : 5
Формат : AC-3
Формат/Информация : Audio Coding 3
Коммерческое название : Dolby Digital
Идентификатор кодека : A_AC3
Продолжительность : 58 м. 21 с.
Вид битрейта : Постоянный
Битрейт : 384 Кбит/сек
Каналы : 6 каналов
Channel layout : L R C LFE Ls Rs
Частота : 48,0 КГц
Частота кадров : 31,250 кадров/сек (1536 SPF)
Битовая глубина : 16 бит
Метод сжатия : С потерями
Размер потока : 160 Мбайт (5%)
Заголовок : MVO Кириллица @DD5.1 AC3, 384 Kbps, 48.0 KHz, 6 ch
Язык : Russian
ServiceKind/String : Complete Main
Default : Да
Forced : Нет

Аудио #2
Идентификатор : 6
Формат : AC-3
Формат/Информация : Audio Coding 3
Коммерческое название : Dolby Digital
Идентификатор кодека : A_AC3
Продолжительность : 58 м. 21 с.
Вид битрейта : Постоянный
Битрейт : 384 Кбит/сек
Каналы : 6 каналов
Channel layout : L R C LFE Ls Rs
Частота : 48,0 КГц
Частота кадров : 31,250 кадров/сек (1536 SPF)
Битовая глубина : 16 бит
Метод сжатия : С потерями
Размер потока : 160 Мбайт (5%)
Заголовок : MVO LostFilm @DD5.1 AC3, 384 Kbps, 48.0 KHz, 6 ch
Язык : Russian
ServiceKind/String : Complete Main
Default : Нет
Forced : Нет

Аудио #3
Идентификатор : 7
Формат : AC-3
Формат/Информация : Audio Coding 3
Коммерческое название : Dolby Digital
Идентификатор кодека : A_AC3
Продолжительность : 57 м. 50 с.
Вид битрейта : Постоянный
Битрейт : 384 Кбит/сек
Каналы : 6 каналов
Channel layout : L R C LFE Ls Rs
Частота : 48,0 КГц
Частота кадров : 31,250 кадров/сек (1536 SPF)
Битовая глубина : 16 бит
Метод сжатия : С потерями
Размер потока : 159 Мбайт (4%)
Заголовок : MVO Profix.Media @DD5.1 AC3, 384 Kbps, 48.0 KHz, 6 ch
Язык : Russian
ServiceKind/String : Complete Main
Default : Нет
Forced : Нет

Аудио #4
Идентификатор : 8
Формат : AC-3
Формат/Информация : Audio Coding 3
Коммерческое название : Dolby Digital
Идентификатор кодека : A_AC3
Продолжительность : 57 м. 51 с.
Вид битрейта : Постоянный
Битрейт : 384 Кбит/сек
Каналы : 6 каналов
Channel layout : L R C LFE Ls Rs
Частота : 48,0 КГц
Частота кадров : 31,250 кадров/сек (1536 SPF)
Битовая глубина : 16 бит
Метод сжатия : С потерями
Размер потока : 159 Мбайт (4%)
Заголовок : MVO Baibako @DD5.1 AC3, 384 Kbps, 48.0 KHz, 6 ch
Язык : Russian
ServiceKind/String : Complete Main
Default : Нет
Forced : Нет

Аудио #5
Идентификатор : 9
Формат : AC-3
Формат/Информация : Audio Coding 3
Коммерческое название : Dolby Digital
Идентификатор кодека : A_AC3
Продолжительность : 57 м. 51 с.
Вид битрейта : Постоянный
Битрейт : 640 Кбит/сек
Каналы : 6 каналов
Channel layout : L R C LFE Ls Rs
Частота : 48,0 КГц
Частота кадров : 31,250 кадров/сек (1536 SPF)
Битовая глубина : 16 бит
Метод сжатия : С потерями
Размер потока : 265 Мбайт (7%)
Заголовок : Original@DD5.1 AC3 ,640 Kbps, 48.0 KHz, 6 ch
Язык : English
ServiceKind/String : Complete Main
Default : Нет
Forced : Нет

Аудио #6
Идентификатор : 10
Формат : AC-3
Формат/Информация : Audio Coding 3
Коммерческое название : Dolby Digital
Идентификатор кодека : A_AC3
Продолжительность : 58 м. 21 с.
Вид битрейта : Постоянный
Битрейт : 384 Кбит/сек
Каналы : 6 каналов
Channel layout : L R C LFE Ls Rs
Частота : 48,0 КГц
Частота кадров : 31,250 кадров/сек (1536 SPF)
Битовая глубина : 16 бит
Метод сжатия : С потерями
Размер потока : 160 Мбайт (5%)
Заголовок : MVO NewStudio @DD5.1 AC3, 384 Kbps, 48.0 KHz, 6 ch
Язык : Russian
ServiceKind/String : Complete Main
Default : Нет
Forced : Нет

Аудио #7
Идентификатор : 11
Формат : AC-3
Формат/Информация : Audio Coding 3
Коммерческое название : Dolby Digital
Идентификатор кодека : A_AC3
Продолжительность : 58 м. 21 с.
Вид битрейта : Постоянный
Битрейт : 384 Кбит/сек
Каналы : 6 каналов
Channel layout : L R C LFE Ls Rs
Частота : 48,0 КГц
Частота кадров : 31,250 кадров/сек (1536 SPF)
Битовая глубина : 16 бит
Метод сжатия : С потерями
Размер потока : 160 Мбайт (5%)
Заголовок : MVO AlexFilm @DD5.1 AC3, 384 Kbps, 48.0 KHz, 6 ch
Язык : Russian
ServiceKind/String : Complete Main
Default : Нет
Forced : Нет

Аудио #8
Идентификатор : 12
Формат : AC-3
Формат/Информация : Audio Coding 3
Коммерческое название : Dolby Digital
Идентификатор кодека : A_AC3
Продолжительность : 58 м. 21 с.
Вид битрейта : Постоянный
Битрейт : 384 Кбит/сек
Каналы : 6 каналов
Channel layout : L R C LFE Ls Rs
Частота : 48,0 КГц
Частота кадров : 31,250 кадров/сек (1536 SPF)
Битовая глубина : 16 бит
Метод сжатия : С потерями
Размер потока : 160 Мбайт (5%)
Заголовок : MVO Jaskier @DD5.1 AC3, 384 Kbps, 48.0 KHz, 6 ch
Язык : Russian
ServiceKind/String : Complete Main
Default : Нет
Forced : Нет

Аудио #9
Идентификатор : 13
Формат : AC-3
Формат/Информация : Audio Coding 3
Коммерческое название : Dolby Digital
Идентификатор кодека : A_AC3
Продолжительность : 58 м. 21 с.
Вид битрейта : Постоянный
Битрейт : 384 Кбит/сек
Каналы : 6 каналов
Channel layout : L R C LFE Ls Rs
Частота : 48,0 КГц
Частота кадров : 31,250 кадров/сек (1536 SPF)
Битовая глубина : 16 бит
Метод сжатия : С потерями
Размер потока : 160 Мбайт (5%)
Заголовок : MVO TVShows @DD5.1 AC3, 384 Kbps, 48.0 KHz, 6 ch
Язык : Russian
ServiceKind/String : Complete Main
Default : Нет
Forced : Нет

Текст #1
Идентификатор : 2
Формат : UTF-8
Идентификатор кодека : S_TEXT/UTF8
Идентификатор кодека/Информация : UTF-8 Plain Text
Продолжительность : 53 м. 13 с.
Битрейт : 3 бит/сек
ElementCount : 27
Размер потока : 1,33 Кбайт (0%)
Заголовок : Rus - Forced
Язык : Russian
Default : Да
Forced : Нет

Текст #2
Идентификатор : 3
Формат : UTF-8
Идентификатор кодека : S_TEXT/UTF8
Идентификатор кодека/Информация : UTF-8 Plain Text
Продолжительность : 56 м. 13 с.
Битрейт : 86 бит/сек
ElementCount : 729
Размер потока : 35,8 Кбайт (0%)
Заголовок : Rus
Язык : Russian
Default : Нет
Forced : Нет

Текст #3
Идентификатор : 4
Формат : UTF-8
Идентификатор кодека : S_TEXT/UTF8
Идентификатор кодека/Информация : UTF-8 Plain Text
Продолжительность : 56 м. 16 с.
Битрейт : 55 бит/сек
ElementCount : 805
Размер потока : 22,7 Кбайт (0%)
Заголовок : Original - SDH
Язык : English
Default : Нет
Forced : Нет

Меню
00:00:00.000 : :Глава 01 / :Глава 01 / :Глава 01 / :Глава 01 / :Глава 01 / :Глава 01 / :Глава 01 / :Глава 01 / :Глава 01 / :Глава 01 / :Глава 01 / :Глава 01 / :Глава 01




Сезон 2

1. Открыть торрент
2. Снять галки с тех файлов торрента, которые мы не хотим закачивать. Оставляем только на нужных нам файлах (файле).
3. Нажать О.К.

В клиенте utorrent

Инструкция

1) Открыть торрент


2) Снять галки с тех файлов торрента, которые мы не хотим закачивать:

* либо вручную, снимая с каждого файла галку( скрин №1)
* либо, нажав кнопку "Снять метки (Select None)", сняв сразу со всех файлов(скрин №2)
№1
№2
Оставляем только на нужных нам файлах (файле).
3)Нажать О.К






Внимание!!! 24.02. 2019. РАЗДАЧА ОБНОВЛЕНА. ДОБАВЛЕНА- 9-10-СЕРИЯ. ФИНАЛ СЕЗОНА. ОБНОВИТЕ ТОРЕНТ ФАЙЛ. ПРИЯТНОГО ПРОСМОТРА . Поблагодарить:
ЯД: 410017546713876


Релиз от: Nikolai.Baranov & PIRATIYA







Время раздачи[color=red] : 24/7


Этот торрент недоступен для скачивания без регистрации, однако доступен по публичной magnet-ссылке (источники с публичных трекеров). Перед использованием ссылки прочтите, пожалуйста Пользовательское соглашение, а также как можно дольше оставайтесь на раздаче! Для того, чтобы скачать сам торрент-файл (который видит больше источников), а также для того, чтобы поблагодарить релизера, вам необходимо зарегистрироваться. Если регистрироваться лень - вы можете также попробовать скачать релиз по нашим партнерским ссылкам ниже. Кроме того, зарегистрированным пользователям не показывается всплывающая реклама при скачивании.

[underverse.name].t122027.torrent
Трекер: Зарегистрирован   [ 24.02.2019 19:19 ]  

Статус: * не проверено
Поблагодарили: 1 человек
Тип торрента: публичный - доступные источники с открытых трекеров: 
Размер: 32,3 GB (занимает 7,38 DVDR, для записи нужно 8 болванок DVDR/RW)
 
 
Похожие темы
Форум Тема Автор Торрент Отв. Посл. сооб.
* Зарубежные сериалы Двойник (Контрмир, По ту сторону) / Counterpart (Сезон 2, Серия 1 - 10 из 10 )( Алик Сахаров, Мортен Тильдум) [2018, Фантастика, триллер, драма , WEB-DLRip 400p][... Nikolai.Baranov
0 | 0

0 | 1214

2

12.01.2019 06:58

* Зарубежные сериалы [BD / Remux / BDRip / WEB-DL / HDTV 1080/720р] Двойник (Контрмир, По ту сторону) / Counterpart (Сезон 2, Серия 1 - 10 из 10 )( Алик Сахаров, Мортен Тильдум) [2018, Фантастика, триллер, драма , WEB-DLRip 720p][... Nikolai.Baranov
0 | 0

0 | 1544

0

01.01.2019 13:06

Sega19 Пол:Муж

26-Фев-2019 07:20

А как бы найти первый сезон???

Яндекс.Метрика powered by Sphinx


В Н И М А Н И Е
Сайт не распространяет и не хранит электронные версии произведений, а лишь бесплатно и без коммерческой выгоды (не требуя взамен платы,
SMS и т.д.) предоставляет доступ к создаваемому пользователями каталогу ссылок на торрент-файлы, которые содержат только списки хеш-сумм.
Убедительная просьба с жалобами обращаться напрямую к пользователю, разместившему торрент файл.

Вверх