Loading...
Error

Каратель / The Punisher (Сезон 2 , Серия 1-7 из 13) (Энди Годдард, Марк Йобст, Кари Скогланд) [2019,Фантастика, боевик, триллер, драма, криминал, приключения ,WEB-DLRip 720p] [LostFilm+NewStudio+Eng]+[Subs Rus , ENG]

Статистика раздачи
Размер:  22,09 GB   |    Зарегистрирован:  6 дней   |    Скачан:  1 раз

Полного источника не было: 1 день 6 часов

Сидов:  0  |  0 KB/s  ]   Личеров:  0  |  0 KB/s  ]

* - сиды/пиры с внешних источников

   
 
Автор Сообщение

Nikolai.Baranov Пол:Муж

24-Янв-2019 10:32





Каратель / The Punisher Серия 1-7 из 13



Год выпуска: 2019
Выпущено: США , Marvel Television
Жанр:Фантастика, боевик, триллер, драма, криминал, приключения
Продолжительность: 00:53:00
Сезон:2
Серия:1-7
Количество серий в сезоне:13

Озвучка 1: Профессиональный многоголосый - LostFilm - Русский

Озвучка 2: Профессиональный многоголосый - NewStudio - Русский

Озвучка 3: Профессиональный многоголосый -Английский - Оригинал

Субтитры: Russian , English, English SDH


Релиз Без Рекламы - ВНИМАНИЕ! В сериале пНенормативная лексика

Официальный сайт

MDB

Режиссеры:
Энди Годдард, Марк Йобст, Кари Скогланд

В ролях: Джон Бернтал, Джейсон Р. Мур, Эбон Мосс-Бакрак, Майкл Натансон, Джейми Рэй Ньюман, Эмбер Роуз Рева, Пол Шульц, Даниэль Уэббер, Дебора Энн Уолл

Бывший морпех Фрэнк Касл на время покончил с ролью линчевателя и отправился колесить по стране. Но мирная жизнь продлилась недолго — он ввязывается в дело, связанное с попыткой убийства девчонки-подростка. Втянутый в тайну, окружающую его новую знакомую и тех, кто на неё охотится, Касл снова подставляет себя под пули. Вступив в противостояние с новыми и старыми врагами, главный герой должен решить раз и навсегда, готов ли он окончательно перевоплотиться в Карателя.



Качество :WEB-DLRip 720p
Формат: MKV
Видео кодек: H264
Видео: 6856Кбит/сек,1280х720(16.9),в 23.976кадр/сек,AVC (NTSC)(Main@L4.1)(CABAC/4 Ref Frames)

Аудио Кодек:AC3

Аудио #1:AC3 640 Kbps, 48.0 KHz, 6 ch- Lostfilm -Русский

Аудио #2:AC3 384 Kbps, 48.0 KHz, 6 ch- NewStudio -Русский

Аудио #3: AC3, 640 Kbps, 48.0 KHz,6 ch - - English - Оригинал

Звуковая дорожка сделана путем наложения чистого голоса озвучивателей на центральный канал оригинальной дорожки. Качество идентично звуковой дорожке.


2 сезон 1 серия - Придорожный блюз - Episode #2.1
2 сезон 2 серия - Бей или беги - Episode #2.2
2 сезон 3 серия - Возмущенные воды - Trouble the Water
2 сезон 4 серия - Рубцовая ткань - Scar Tissue
2 сезон 5 серия - Одноглазый валет - One-Eyed Jacks
2 сезон 6 серия - Наказать - Nakazat
2 сезон 7 серия - Один плохой день - One Bad Day




Общее
Уникальный идентификатор : 276522212219369130930152289651289456305 (0xD0083DAA52481271E9F23E03379B7EB1)
Полное имя : E:\Nikolai.Baranov & PIRATIYA\Каратель - The Punisher\The_Punisher_2019_S02_N.B_HD_720_LostFilm_Rus_Eng\The_Punisher_S02Е01_Н264_DD5.1_N.B_HD_720_LostFilm_Rus_Eng.mkv
Формат : Matroska
Версия формата : Version 4
Размер файла : 3,11 Гбайт
Продолжительность : 53 м. 9 с.
Общий поток : 8381 Кбит/сек
Название фильма : The Punisher 2019 S02Е01 @ Nikolai.Baranov & PIRATIYA
Дата кодирования : UTC 2019-01-29 09:03:44
Программа кодирования : mkvmerge v30.1.0 ('Forever And More') 64-bit
Библиотека кодирования : libebml v1.3.6 + libmatroska v1.4.9

Видео
Идентификатор : 1
Формат : AVC
Формат/Информация : Advanced Video Codec
Профиль формата : Main@L4.1
Настройки формата : CABAC / 4 Ref Frames
Параметр CABAC формата : Да
Параметр RefFrames формата : 4 кадра
Идентификатор кодека : V_MPEG4/ISO/AVC
Продолжительность : 52 м. 13 с.
Битрейт : 6856 Кбит/сек
Ширина : 1280 пикселей
Высота : 720 пикселей
Соотношение сторон : 16:9
Режим частоты кадров : Постоянный
Частота кадров : 23,976 (24000/1001) кадра/сек
Стандарт вещания : NTSC
Цветовое пространство : YUV
Субдискретизация насыщенности : 4:2:0
Битовая глубина : 8 бит
Тип развёртки : Прогрессивная
Бит/(Пиксели*Кадры) : 0.310
Размер потока : 2,50 Гбайт (80%)
Заголовок : The_Punisher_S02Е01_Н264_DD5.1_N.B_HD_720_LostFilm_Rus_Eng
Язык : Russian
Default : Нет
Forced : Нет
Цветовой диапазон : Limited
Основные цвета : BT.709
Характеристики трансфера : BT.709
Коэффициенты матрицы : BT.709

Аудио #1
Идентификатор : 5
Формат : AC-3
Формат/Информация : Audio Coding 3
Коммерческое название : Dolby Digital
Идентификатор кодека : A_AC3
Продолжительность : 52 м. 16 с.
Вид битрейта : Постоянный
Битрейт : 640 Кбит/сек
Каналы : 6 каналов
Channel layout : L R C LFE Ls Rs
Частота : 48,0 КГц
Частота кадров : 31,250 кадров/сек (1536 SPF)
Битовая глубина : 16 бит
Метод сжатия : С потерями
Размер потока : 239 Мбайт (8%)
Заголовок : MVO LostFilm @DD5.1 AC3, 640 Kbps, 48.0 KHz, 6 ch
Язык : Russian
ServiceKind/String : Complete Main
Default : Да
Forced : Нет

Аудио #2
Идентификатор : 6
Формат : AC-3
Формат/Информация : Audio Coding 3
Коммерческое название : Dolby Digital
Идентификатор кодека : A_AC3
Продолжительность : 52 м. 16 с.
Вид битрейта : Постоянный
Битрейт : 640 Кбит/сек
Каналы : 6 каналов
Channel layout : L R C LFE Ls Rs
Частота : 48,0 КГц
Частота кадров : 31,250 кадров/сек (1536 SPF)
Битовая глубина : 16 бит
Метод сжатия : С потерями
Размер потока : 239 Мбайт (8%)
Заголовок : Original@DD5.1 AC3 ,640 Kbps, 48.0 KHz, 6 ch
Язык : English
ServiceKind/String : Complete Main
Default : Нет
Forced : Нет

Аудио #3
Идентификатор : 7
Формат : AC-3
Формат/Информация : Audio Coding 3
Коммерческое название : Dolby Digital
Идентификатор кодека : A_AC3
Продолжительность : 53 м. 9 с.
Вид битрейта : Постоянный
Битрейт : 384 Кбит/сек
Каналы : 6 каналов
Channel layout : L R C LFE Ls Rs
Частота : 48,0 КГц
Частота кадров : 31,250 кадров/сек (1536 SPF)
Битовая глубина : 16 бит
Метод сжатия : С потерями
Размер потока : 146 Мбайт (5%)
Заголовок : MVO NewStudio @DD5.1 AC3, 384 Kbps, 48.0 KHz, 6 ch
Язык : Russian
ServiceKind/String : Complete Main
Default : Нет
Forced : Нет

Текст #1
Идентификатор : 2
Формат : UTF-8
Идентификатор кодека : S_TEXT/UTF8
Идентификатор кодека/Информация : UTF-8 Plain Text
Продолжительность : 50 м. 51 с.
Битрейт : 61 бит/сек
ElementCount : 501
Размер потока : 22,9 Кбайт (0%)
Заголовок : Rus
Язык : Russian
Default : Да
Forced : Нет

Текст #2
Идентификатор : 3
Формат : UTF-8
Идентификатор кодека : S_TEXT/UTF8
Идентификатор кодека/Информация : UTF-8 Plain Text
Продолжительность : 50 м. 50 с.
Битрейт : 55 бит/сек
ElementCount : 671
Размер потока : 20,6 Кбайт (0%)
Заголовок : Original - SDH
Язык : English
Default : Нет
Forced : Нет

Текст #3
Идентификатор : 4
Формат : UTF-8
Идентификатор кодека : S_TEXT/UTF8
Идентификатор кодека/Информация : UTF-8 Plain Text
Продолжительность : 50 м. 13 с.
Битрейт : 48 бит/сек
ElementCount : 574
Размер потока : 18,0 Кбайт (0%)
Заголовок : Original
Язык : English
Default : Нет
Forced : Нет

Меню
00:00:00.000 : :Глава 01 / :Глава 01 / :Глава 01 / :Глава 01 / :Глава 01 / :Глава 01 / :Глава 01






Внимание! Раздача пополняется по мере выхода новых серий!



Раздача ведётся путём добавления новых серий; при каждом добавлении создётся новый торрент.
Чтобы начать докачку новой серии, пользователям необходимо сделать следующее:
1. остановить скачивание,
2. удалить старый торрент у себя из клиента (старые серии удалять не надо),
3. скачать новый торрент и запустить его у себя в клиенте вместо старого, при этом указать клиенту путь в старую папку, куда и должно происходить скачивание новых серий.

Ваш клиент при этом должен произвести хеширование (проверку) старой папки (если не производит сам - помогите ему сделать это), и будет докачивать только те серии которых у вас ещё нет. Старые серии при этом не удаляются, а продолжают раздаваться!

Eсли вы уже удалили старые серии, то предотвратить повторную закачку старых серий можно, отжав галочку в соответсвующих местах при запуске нового торрента. По возможности, желательно не удалять старые серии как можно дольше, чтобы релизёр не столько продолжал раздавать старые серии, а смог сконцентрироваться на новых.

Совет для тех, кто не хочет ждать перехеширования:
Создайте ещё одну папку рядом с папкой сериала (рядом, а не в ней!!!). Каждую новую серию после удачной загрузки копируйте в новую папку так чтобы ваша основная папка всегда была пуста. Когда ваш новый торрент предложит вам закачать все файлы, выберете только последнюю. Для сидирования же укажите адрес новой папки.

Как закачать отдельный файл из торрента или докачать ранее пропущенные файлы торрента!
1. Открыть торрент
2. Снять галки с тех файлов торрента, которые мы не хотим закачивать. Оставляем только на нужных нам файлах (файле).
3. Нажать О.К.

В клиенте utorrent

Инструкция

1) Открыть торрент


2) Снять галки с тех файлов торрента, которые мы не хотим закачивать:

* либо вручную, снимая с каждого файла галку( скрин №1)
* либо, нажав кнопку "Снять метки (Select None)", сняв сразу со всех файлов(скрин №2)
№1
№2
Оставляем только на нужных нам файлах (файле).
3)Нажать О.К






Внимание!!! 12.02. 2019. РАЗДАЧА ОБНОВЛЕНА. ДОБАВЛЕНА - 7 - СЕРИЯ. ЗВУКОВАЯ ДОРОЖКА NewStudio ОБНОВИТЕ ТОРЕНТ ФАЙЛ. ПРИЯТНОГО ПРОСМОТРА . Поблагодарить:
ЯД: 410017546713876


Релиз от: Nikolai.Baranov & PIRATIYA







Время раздачи[color=red] : 24/7


Этот торрент недоступен для скачивания без регистрации, однако доступен по публичной magnet-ссылке (источники с публичных трекеров). Перед использованием ссылки прочтите, пожалуйста Пользовательское соглашение, а также как можно дольше оставайтесь на раздаче! Для того, чтобы скачать сам торрент-файл (который видит больше источников), а также для того, чтобы поблагодарить релизера, вам необходимо зарегистрироваться. Если регистрироваться лень - вы можете также попробовать скачать релиз по нашим партнерским ссылкам ниже. Кроме того, зарегистрированным пользователям не показывается всплывающая реклама при скачивании.

[underverse.name].t124995.torrent
Трекер: Зарегистрирован   [ 12.02.2019 07:33 ]  

Статус: T временная (by Паукан at 15.02.2019 11:45)
Поблагодарили: 1 человек
Тип торрента: публичный - доступные источники с открытых трекеров: 
Размер: 22,09 GB (занимает 5,05 DVDR, для записи нужно 6 болванок DVDR/RW)
 
 
Похожие темы
Форум Тема Автор Торрент Отв. Посл. сооб.
Зарубежное кино HQ Каратель / The Punisher (Джонатан Хенсли) [2004 г., боевик, триллер, драма, криминал, BDRip] Dub HQ Underverse HQ Underverse
1 | 0

0 | 2099

58

23.02.2013 22:33

T Зарубежные сериалы Каратель / The Punisher [сезон 1 / серии 1-13 (13)] (Энди Годдард, Марк Йобст, Кари Скогланд) [2017 г., фантастика, боевик, триллер, драма, криминал, приключения, WEBRip] MVO (ColdFilm) 90ytr90
39 | 6

0 | 1911

51

18.11.2017 13:13

T Зарубежные сериалы Каратель / The Punisher (Сезон 1-2 , Серия 1-10 из 26) (Энди Годдард, Марк Йобст, Кари Скогланд) [2017 -2019,Фантастика, боевик, триллер, драма, криминал, приключения ,WEB-DLRip 400p]... Nikolai.Baranov
0 | 4

0 | 262

0

31.01.2019 14:56

T Зарубежные сериалы [BD / Remux / BDRip / WEB-DL / HDTV 1080/720р] Каратель / The Punisher (Сезон 2 , Серия 1-8 из 13) (Энди Годдард, Марк Йобст, Кари Скогланд) [2019,Фантастика, боевик, триллер, драма, криминал, приключения ,WEB-DLRip 1080p]... Nikolai.Baranov
0 | 3

0 | 1861

1

23.01.2019 09:44

# Комиксы Каратель / Punisher [1975-2010 г., comics, CBR, CBZ, PDF] Eng garry
2 | 2

0 | 1986

2

04.08.2010 07:24


Яндекс.Метрика powered by Sphinx


В Н И М А Н И Е
Сайт не распространяет и не хранит электронные версии произведений, а лишь бесплатно и без коммерческой выгоды (не требуя взамен платы,
SMS и т.д.) предоставляет доступ к создаваемому пользователями каталогу ссылок на торрент-файлы, которые содержат только списки хеш-сумм.
Убедительная просьба с жалобами обращаться напрямую к пользователю, разместившему торрент файл.

Вверх