Loading...
Error

(Samba, Soul, Funk) Seu Jorge And Almaz - Seu Jorge And Almaz (2010) [FLAC (Tracks+.CUE), lossless]

Статистика раздачи
Размер:  302 MB   |    Зарегистрирован:  8 лет   |    Скачан:  15 раз

Полного источника не было: 4 дня

Сидов:  0  |  0 KB/s  ]   Личеров:  0  |  0 KB/s  ]

* - сиды/пиры с внешних источников

   
 
Автор Сообщение

M@fiozi Пол:Муж

09-Окт-2010 15:10

Seu Jorge And Almaz - Seu Jorge And Almaz

Жанр: Samba, Soul, Funk
Год выпуска: 2010
Производитель диска: Brazil
Аудиокодек: FLAC
Тип рипа: Tracks+.CUE
Битрейт аудио: lossless
Продолжительность: 00:47:59

Треклист:

01. Errare Humanum
02. Das Model
03. Cristina
04. Saudosa Bahia
05. Cirandar
06. Tempo De Amor
07. Everybody Loves The Sunshine
08. Pai Joao
09. Rock With You
10. Cala Boca, Menino
11. Girl You Move Me
12. Juizo Fina
X Lossless Decoder version 20100711 (120.5)

XLD extraction logfile from 2010-08-11 14:44:34 -0500

Seu Jorge And Almaz / Seu Jorge and Almaz

Used drive : MATSHITA DVD-R UJ-868 (revision KB19)

Use cdparanoia mode : YES (CDParanoia III 10.2 engine)
Disable audio cache : OK for the drive with cache less than 2750KB
Make use of C2 pointers : NO
Read offset correction : 102
Max retry count : 100
Gap status : Analyzed, Appended (except HTOA)

TOC of the extracted CD
Track | Start | Length | Start sector | End sector
---------------------------------------------------------
1 | 00:00:00 | 04:51:41 | 0 | 21865
2 | 04:51:41 | 03:08:52 | 21866 | 36017
3 | 08:00:18 | 03:09:36 | 36018 | 50228
4 | 11:09:54 | 03:18:19 | 50229 | 65097
5 | 14:27:73 | 04:15:64 | 65098 | 84286
6 | 18:43:62 | 03:23:58 | 84287 | 99569
7 | 22:07:45 | 04:57:13 | 99570 | 121857
8 | 27:04:58 | 03:52:63 | 121858 | 139320
9 | 30:57:46 | 04:17:07 | 139321 | 158602
10 | 35:14:53 | 02:21:27 | 158603 | 169204
11 | 37:36:05 | 05:32:02 | 169205 | 194106
12 | 43:08:07 | 04:51:44 | 194107 | 215975

All Tracks
Album gain : -6.92 dB
Peak : 0.954681

Track 01
Filename : /Volumes/WD/Seu Jorge and Almaz - 2010/01 - Errare Humanum Est.flac

Pre-gap length : 00:02:00

Track gain : -6.93 dB
Peak : 0.954681
CRC32 hash (test run) : 17E412E7
CRC32 hash : 17E412E7
CRC32 hash (skip zero) : 27B603DA
Statistics
Read error : 0
Skipped (treated as error) : 0
Edge jitter error (maybe fixed) : 0
Atom jitter error (maybe fixed) : 0
Drift error (maybe fixed) : 0
Dropped bytes error (maybe fixed) : 0
Duplicated bytes error (maybe fixed) : 0
Inconsistency in error sectors : 0

Track 02
Filename : /Volumes/WD/Seu Jorge and Almaz - 2010/02 - The Model.flac

Track gain : -5.65 dB
Peak : 0.954681
CRC32 hash (test run) : B50960E7
CRC32 hash : B50960E7
CRC32 hash (skip zero) : F191B066
Statistics
Read error : 0
Skipped (treated as error) : 0
Edge jitter error (maybe fixed) : 0
Atom jitter error (maybe fixed) : 0
Drift error (maybe fixed) : 0
Dropped bytes error (maybe fixed) : 0
Duplicated bytes error (maybe fixed) : 0
Inconsistency in error sectors : 0

Track 03
Filename : /Volumes/WD/Seu Jorge and Almaz - 2010/03 - Cristina.flac

Track gain : -7.15 dB
Peak : 0.954681
CRC32 hash (test run) : 01B189AD
CRC32 hash : 01B189AD
CRC32 hash (skip zero) : AC85A3B4
Statistics
Read error : 0
Skipped (treated as error) : 0
Edge jitter error (maybe fixed) : 0
Atom jitter error (maybe fixed) : 0
Drift error (maybe fixed) : 0
Dropped bytes error (maybe fixed) : 0
Duplicated bytes error (maybe fixed) : 0
Inconsistency in error sectors : 0

Track 04
Filename : /Volumes/WD/Seu Jorge and Almaz - 2010/04 - Saudosa Bahia.flac

Track gain : -4.73 dB
Peak : 0.954681
CRC32 hash (test run) : 3E132CEA
CRC32 hash : 3E132CEA
CRC32 hash (skip zero) : CC6F43F4
Statistics
Read error : 0
Skipped (treated as error) : 0
Edge jitter error (maybe fixed) : 0
Atom jitter error (maybe fixed) : 0
Drift error (maybe fixed) : 0
Dropped bytes error (maybe fixed) : 0
Duplicated bytes error (maybe fixed) : 0
Inconsistency in error sectors : 0

Track 05
Filename : /Volumes/WD/Seu Jorge and Almaz - 2010/05 - Cirandar.flac

Track gain : -6.10 dB
Peak : 0.954681
CRC32 hash (test run) : 2FF7B37E
CRC32 hash : 2FF7B37E
CRC32 hash (skip zero) : CF0CC5DB
Statistics
Read error : 0
Skipped (treated as error) : 0
Edge jitter error (maybe fixed) : 0
Atom jitter error (maybe fixed) : 0
Drift error (maybe fixed) : 0
Dropped bytes error (maybe fixed) : 0
Duplicated bytes error (maybe fixed) : 0
Inconsistency in error sectors : 0

Track 06
Filename : /Volumes/WD/Seu Jorge and Almaz - 2010/06 - Tempo De Amor.flac

Track gain : -5.61 dB
Peak : 0.954681
CRC32 hash (test run) : 983155DF
CRC32 hash : 983155DF
CRC32 hash (skip zero) : B1254099
Statistics
Read error : 0
Skipped (treated as error) : 0
Edge jitter error (maybe fixed) : 0
Atom jitter error (maybe fixed) : 0
Drift error (maybe fixed) : 0
Dropped bytes error (maybe fixed) : 0
Duplicated bytes error (maybe fixed) : 0
Inconsistency in error sectors : 0

Track 07
Filename : /Volumes/WD/Seu Jorge and Almaz - 2010/07 - Everybody Loves The Sunshine.flac

Track gain : -6.29 dB
Peak : 0.954681
CRC32 hash (test run) : 75FF9EE7
CRC32 hash : 75FF9EE7
CRC32 hash (skip zero) : DF57E3AC
Statistics
Read error : 0
Skipped (treated as error) : 0
Edge jitter error (maybe fixed) : 0
Atom jitter error (maybe fixed) : 0
Drift error (maybe fixed) : 0
Dropped bytes error (maybe fixed) : 0
Duplicated bytes error (maybe fixed) : 0
Inconsistency in error sectors : 0

Track 08
Filename : /Volumes/WD/Seu Jorge and Almaz - 2010/08 - Pai Joao.flac

Track gain : -7.13 dB
Peak : 0.954681
CRC32 hash (test run) : C73D14D1
CRC32 hash : C73D14D1
CRC32 hash (skip zero) : C81FEB7B
Statistics
Read error : 0
Skipped (treated as error) : 0
Edge jitter error (maybe fixed) : 0
Atom jitter error (maybe fixed) : 0
Drift error (maybe fixed) : 0
Dropped bytes error (maybe fixed) : 0
Duplicated bytes error (maybe fixed) : 0
Inconsistency in error sectors : 0

Track 09
Filename : /Volumes/WD/Seu Jorge and Almaz - 2010/09 - Rock With You.flac

Track gain : -5.45 dB
Peak : 0.954681
CRC32 hash (test run) : FC5481E4
CRC32 hash : FC5481E4
CRC32 hash (skip zero) : 39F50BAC
Statistics
Read error : 0
Skipped (treated as error) : 0
Edge jitter error (maybe fixed) : 0
Atom jitter error (maybe fixed) : 0
Drift error (maybe fixed) : 0
Dropped bytes error (maybe fixed) : 0
Duplicated bytes error (maybe fixed) : 0
Inconsistency in error sectors : 0

Track 10
Filename : /Volumes/WD/Seu Jorge and Almaz - 2010/10 - Cala Boca, Menino.flac

Track gain : -7.20 dB
Peak : 0.954681
CRC32 hash (test run) : 4BBA2473
CRC32 hash : 4BBA2473
CRC32 hash (skip zero) : 09967BCD
Statistics
Read error : 0
Skipped (treated as error) : 0
Edge jitter error (maybe fixed) : 0
Atom jitter error (maybe fixed) : 0
Drift error (maybe fixed) : 0
Dropped bytes error (maybe fixed) : 0
Duplicated bytes error (maybe fixed) : 0
Inconsistency in error sectors : 0

Track 11
Filename : /Volumes/WD/Seu Jorge and Almaz - 2010/11 - Girl You Move Me.flac

Track gain : -7.59 dB
Peak : 0.954681
CRC32 hash (test run) : F969F5D2
CRC32 hash : F969F5D2
CRC32 hash (skip zero) : 8243BBBC
Statistics
Read error : 0
Skipped (treated as error) : 0
Edge jitter error (maybe fixed) : 0
Atom jitter error (maybe fixed) : 0
Drift error (maybe fixed) : 0
Dropped bytes error (maybe fixed) : 0
Duplicated bytes error (maybe fixed) : 0
Inconsistency in error sectors : 0

Track 12
Filename : /Volumes/WD/Seu Jorge and Almaz - 2010/12 - Juizo Final.flac

Track gain : -7.43 dB
Peak : 0.954681
CRC32 hash (test run) : B549D0F1
CRC32 hash : B549D0F1
CRC32 hash (skip zero) : F32C1400
Statistics
Read error : 0
Skipped (treated as error) : 0
Edge jitter error (maybe fixed) : 0
Atom jitter error (maybe fixed) : 0
Drift error (maybe fixed) : 0
Dropped bytes error (maybe fixed) : 0
Duplicated bytes error (maybe fixed) : 0
Inconsistency in error sectors : 0

No errors occurred

End of status report

Этот торрент недоступен для скачивания без регистрации, однако доступен по публичной magnet-ссылке (источники с публичных трекеров). Перед использованием ссылки прочтите, пожалуйста Пользовательское соглашение, а также как можно дольше оставайтесь на раздаче! Для того, чтобы скачать сам торрент-файл (который видит больше источников), а также для того, чтобы поблагодарить релизера, вам необходимо зарегистрироваться. Если регистрироваться лень - вы можете также попробовать скачать релиз по нашим партнерским ссылкам ниже. Кроме того, зарегистрированным пользователям не показывается всплывающая реклама при скачивании.

[underverse.su].t12258.torrent
Трекер: Зарегистрирован   [ 09.10.2010 15:10 ]  

Статус: проверено (by M-i-i-i-ke at 09.10.2010 16:29)
Поблагодарили: 2 человека
Тип торрента: публичный - доступные источники с открытых трекеров: 
Размер: 302 MB (занимает 0,07 DVDR, для записи нужно 1 болванка DVDR/RW)
 
 

kot3 Пол:Муж

12-Май-2011 11:58

Норм музычка, есть что то из тарантиновских фильмов

Яндекс.Метрика powered by Sphinx


В Н И М А Н И Е
Сайт не распространяет и не хранит электронные версии произведений, а лишь бесплатно и без коммерческой выгоды (не требуя взамен платы,
SMS и т.д.) предоставляет доступ к создаваемому пользователями каталогу ссылок на торрент-файлы, которые содержат только списки хеш-сумм.
Убедительная просьба с жалобами обращаться напрямую к пользователю, разместившему торрент файл.

Вверх