Loading...
Error

(Electropop) Hurts - Happiness (2010) [FLAC (Image+.CUE), lossless]

Статистика раздачи
Размер:  309 MB   |    Зарегистрирован:  7 лет 9 месяцев   |    Скачан:  2 раза

Полного источника не было: 2 месяца 19 дней

Сидов:  0  |  0 KB/s  ]   Личеров:  0  |  0 KB/s  ]

* - сиды/пиры с внешних источников

   
 
Автор Сообщение

Bratok Пол:Муж

07-Ноя-2010 17:07

Hurts - Happiness
Жанр: Electropop
Год выпуска: 2010
Аудиокодек: FLAC
Тип рипа: Image+.CUE
Битрейт аудио: lossless
Продолжительность: 00:48:02

От издателя
Британский дуэт Hurts стал главной музыкальной сенсацией 2010 года еще до выхода их дебютного альбома. Клип "Wonderful Life", снятый музыкантами за 25 фунтов стерлингов, уже стал одной из легенд поп-музыки. Стильное черно-белое видео, сделанное буквально "на коленке", и мечтательная песня с запоминающейся мелодией потрясли как меломанов, так и музыкальных критиков, в один голос предрекшим Hurts большое будущее. Очень скоро дуэт заключил контракт с Sony Music, и подготовил альбом, который обещает стать одним из главных музыкальных событий года. Сама Кайли Миноуг не смогла отказать дебютантам, и спела на одном из треков альбома, "Devotion". В диск включены все песни группы, уже ставшие известными, в том числе и "Wonderful Life", ставший одним из главных радиохитов лета в России.

Треклист:

1.Silver Lining
2.Wonderful Life
3.Blood, Tears & Gold
4.Sunday
5.Stay
6.Illuminated
7.Evelyn
8.Better Than Love
9.Devotion
10.Unspoken
11. The Water
Exact Audio Copy V0.99 prebeta 5 from 4. May 2009

EAC extraction logfile from 7. November 2010, 19:49

Hurts / Happiness

Used drive : TSSTcorpCDDVDW SH-S202J Adapter: 0 ID: 0

Read mode : Secure
Utilize accurate stream : Yes
Defeat audio cache : Yes
Make use of C2 pointers : No

Read offset correction : 6
Overread into Lead-In and Lead-Out : No
Fill up missing offset samples with silence : Yes
Delete leading and trailing silent blocks : No
Null samples used in CRC calculations : Yes
Used interface : Native Win32 interface for Win NT & 2000

Used output format : User Defined Encoder
Selected bitrate : 768 kBit/s
Quality : High
Add ID3 tag : No
Command line compressor : C:\Program Files\Exact Audio Copy\Flac\flac.exe
Additional command line options : -T "DATE=%y" -T "GENRE=%m" -8 -V %s

TOC of the extracted CD

Track | Start | Length | Start sector | End sector
---------------------------------------------------------
1 | 0:00.00 | 4:57.73 | 0 | 22347
2 | 4:57.73 | 4:14.10 | 22348 | 41407
3 | 9:12.08 | 4:18.08 | 41408 | 60765
4 | 13:30.16 | 3:52.48 | 60766 | 78213
5 | 17:22.64 | 3:55.15 | 78214 | 95853
6 | 21:18.04 | 3:18.56 | 95854 | 110759
7 | 24:36.60 | 3:54.61 | 110760 | 128370
8 | 28:31.46 | 3:33.10 | 128371 | 144355
9 | 32:04.56 | 4:12.42 | 144356 | 163297
10 | 36:17.23 | 4:46.61 | 163298 | 184808
11 | 41:04.09 | 6:58.19 | 184809 | 216177

Range status and errors

Selected range

Filename E:\музыка на торент 2\Hurts Happiness\Hurts - Happiness.wav

Peak level 99.9 %
Range quality 100.0 %
Test CRC 969278F3
Copy CRC 969278F3
Copy OK

No errors occurred

AccurateRip summary
Track 1 accurately ripped (confidence 42) [22662CEF]
Track 2 accurately ripped (confidence 42) [54DC3C5E]
Track 3 accurately ripped (confidence 42) [6ABE53AC]
Track 4 accurately ripped (confidence 42) [F0117CF1]
Track 5 accurately ripped (confidence 42) [C8F39419]
Track 6 accurately ripped (confidence 42) [20F7FF28]
Track 7 accurately ripped (confidence 42) [3F293163]
Track 8 accurately ripped (confidence 42) [46991672]
Track 9 accurately ripped (confidence 42) [244ECFA7]
Track 10 accurately ripped (confidence 41) [48A52F3E]
Track 11 accurately ripped (confidence 41) [8808A71B]
All tracks accurately ripped

End of status report
Релиз группы:

Этот торрент доступен для скачивания без регистрации. Перед тем, как его скачать, прочтите, пожалуйста Пользовательское соглашение, а также как можно дольше оставайтесь на раздаче! Также вы можете выкладывать этот торрент или ссылку на него на других интернет-ресурсах, в том числе на торрент трекерах. Для получение более подробной информации о релизе, а также для того, чтобы поблагодарить релизера, вам необходимо зарегистрироваться.

[underverse.su].t12624.torrent
Трекер: Зарегистрирован   [ 07.11.2010 17:07 ]   [ торрент доступен для скачивания без регистрации ]

Статус: проверено (by ZondeR at 07.11.2010 17:09)
Поблагодарили: 2 человека
Тип торрента: публичный - доступные источники с открытых трекеров: 
Размер: 309 MB (занимает 0,07 DVDR, для записи нужно 1 болванка DVDR/RW)
 
 
Похожие темы
Форум Тема Автор Торрент Отв. Посл. сооб.
Зарубежная Pop Музыка (Electropop, Synthpop) Florrie - Little White Lies (2014) [MP3, 320 kbps] 90ytr90
2 | 0

0 | 525

2

08.11.2016 16:24

Зарубежная Pop Музыка (Electropop, Indietronic, Experimental) Glasser - Дискография (2010, 2013) [MP3, 320 kbps] 90ytr90
1 | 0

1 | 988

3

22.03.2015 19:52

Отечественная Pop Музыка (Electropop) Horja - Male Defect (2017) [MP3, 320 kbps CBR] Darkferse
2 | 0

0 | 662

1

06.04.2017 17:51

Indie Electronic, New Wave (Electropop, Indietronic) I Hate This Place - Дискография /5 релизов/ (2007-2010) [MP3, 128-320 kbps CBR] Jimmy
1 | 0

0 | 2274

4

19.03.2013 13:03

Synthpop, Futurepop, Electropop, Spacesynth (Electropop, Synthpop) iEuropean - Into The Unknown (2017) [MP3, 320 kbps CBR] Darkferse
2 | 1

0 | 298

5

01.01.2018 10:05

Synthpop, Futurepop, Electropop, Spacesynth (Electropop) Julian Brandt - Looks And Talent (Don't Always Go Together) (2009) [MP3, ~192kbps VBR] ZondeR
0 | 0

0 | 1700

4

06.12.2009 20:13

Synthpop, Futurepop, Electropop, Spacesynth (Electropop, Disco) Holy Ghost! - Crime Cutz (EP) (2016) [MP3, 320 kbps] ANDRAKO
3 | 0

0 | 758

2

13.12.2016 11:38

Synthpop, Futurepop, Electropop, Spacesynth (Electropop, Synthpop) District 13 - On The Radio (2017) [MP3, 320 kbps CBR] Darkferse
1 | 0

0 | 433

4

30.05.2017 09:32

Synthpop, Futurepop, Electropop, Spacesynth (Electropop, Synthpop) Techni-ka - Depeche Mode Remixes for the Masses (2015) [MP3, 320 kbps CBR] Darkferse
2 | 0

0 | 679

9

30.05.2017 17:21

Synthpop, Futurepop, Electropop, Spacesynth (Electropop) 2raumwohnung - Nacht und Tag (2017) [MP3, 320 kbps CBR] Darkferse
7 | 0

0 | 505

4

18.06.2017 18:03

31-Янв-2018 21:16

Топик был перенесен из форума Synthpop, Futurepop, Electropop, Spacesynth (Lossless) в форум Архив (HQ электронная музыка)


[cron robot]
 

Яндекс.Метрика powered by Sphinx


В Н И М А Н И Е
Сайт не распространяет и не хранит электронные версии произведений, а лишь бесплатно и без коммерческой выгоды (не требуя взамен платы,
SMS и т.д.) предоставляет доступ к создаваемому пользователями каталогу ссылок на торрент-файлы, которые содержат только списки хеш-сумм.
Убедительная просьба с жалобами обращаться напрямую к пользователю, разместившему торрент файл.

Вверх