Loading...
Error

(Breakbeat, Electronic) The Prodigy - World's On Fire (2011) [FLAC (Tracks+.CUE), lossless]

Статистика раздачи
Размер:  492 MB   |    Зарегистрирован:  7 лет 2 месяца   |    Скачан:  4 раза

Полного источника не было: 1 год 6 месяцев

Сидов:  0  |  0 KB/s  ]   Личеров:  0  |  0 KB/s  ]

* - сиды/пиры с внешних источников

   
 
Автор Сообщение

M-i-i-i-ke Пол:Муж

25-Май-2011 20:39

The Prodigy - World's On Fire
Жанр: Breakbeat, Electronic
Год выпуска: 2011
Производитель диска: Великобритания
Аудиокодек: FLAC
Тип рипа: Tracks+.CUE
Битрейт аудио: lossless
Продолжительность: 01:05:33

Треклист:

01 - Intro (0:32)
02 - Breathe (5:02)
03 - Omen (3:48)
04 - Colours (4:06)
05 - Thunder (2:51)
06 - Warrior's Dance (4:56)
07 - Firestarter (4:39)
08 - Run With The Wolves (4:23)
09 - Weather Experience (3:57)
10 - Voodoo People (3:45)
11 - Omen Reprise (1:21)
12 - Invaders Must Die (3:45)
13 - Smack My Bitch Up (5:04)
14 - Take Me To The Hospital (4:08)
15 - Everybody In The Place (3:16)
16 - Their Law (5:28)
17 - Out Of Space (4:32)
Exact Audio Copy V1.0 beta 1 from 15. November 2010

EAC extraction logfile from 24. May 2011, 21:42

The Prodigy / World's On Fire

Used drive : PLEXTOR DVDR PX-L890SA Adapter: 0 ID: 2

Read mode : Secure
Utilize accurate stream : Yes
Defeat audio cache : Yes
Make use of C2 pointers : No

Read offset correction : 6
Overread into Lead-In and Lead-Out : No
Fill up missing offset samples with silence : Yes
Delete leading and trailing silent blocks : No
Null samples used in CRC calculations : Yes
Used interface : Native Win32 interface for Win NT & 2000
Gap handling : Appended to previous track

Used output format : User Defined Encoder
Selected bitrate : 128 kBit/s
Quality : High
Add ID3 tag : No
Command line compressor : C:\Program Files (x86)\Exact Audio Copy\Flac\flac.exe
Additional command line options : -V -8 -T "artist=%a" -T "title=%t" -T "album=%g" -T "date=%y" -T "tracknumber=%n" -T "genre=%m" %s

TOC of the extracted CD

Track | Start | Length | Start sector | End sector
---------------------------------------------------------
1 | 0:00.00 | 0:32.22 | 0 | 2421
2 | 0:32.22 | 5:02.63 | 2422 | 25134
3 | 5:35.10 | 3:48.47 | 25135 | 42281
4 | 9:23.57 | 4:06.05 | 42282 | 60736
5 | 13:29.62 | 2:51.71 | 60737 | 73632
6 | 16:21.58 | 4:56.70 | 73633 | 95902
7 | 21:18.53 | 4:39.65 | 95903 | 116892
8 | 25:58.43 | 4:23.71 | 116893 | 136688
9 | 30:22.39 | 3:57.42 | 136689 | 154505
10 | 34:20.06 | 3:45.52 | 154506 | 171432
11 | 38:05.58 | 1:21.60 | 171433 | 177567
12 | 39:27.43 | 3:45.66 | 177568 | 194508
13 | 43:13.34 | 5:04.26 | 194509 | 217334
14 | 48:17.60 | 4:08.28 | 217335 | 235962
15 | 52:26.13 | 3:16.58 | 235963 | 250720
16 | 55:42.71 | 5:28.41 | 250721 | 275361
17 | 61:11.37 | 4:32.32 | 275362 | 295793

Track 1

Filename D:\Uploads\uTorrent\What.CD\The Prodigy - World's On Fire (2011) - FLAC\01 - Intro.wav

Pre-gap length 0:00:02.00

Peak level 97.1 %
Extraction speed 1.6 X
Track quality 100.0 %
Test CRC 67C28042
Copy CRC 67C28042
Copy OK

Track 2

Filename D:\Uploads\uTorrent\What.CD\The Prodigy - World's On Fire (2011) - FLAC\02 - Breathe.wav

Peak level 97.1 %
Extraction speed 3.0 X
Track quality 99.9 %
Test CRC 19E56B16
Copy CRC 19E56B16
Copy OK

Track 3

Filename D:\Uploads\uTorrent\What.CD\The Prodigy - World's On Fire (2011) - FLAC\03 - Omen.wav

Peak level 97.1 %
Extraction speed 3.9 X
Track quality 100.0 %
Test CRC 6C5F7551
Copy CRC 6C5F7551
Copy OK

Track 4

Filename D:\Uploads\uTorrent\What.CD\The Prodigy - World's On Fire (2011) - FLAC\04 - Colours.wav

Peak level 97.1 %
Extraction speed 3.4 X
Track quality 99.9 %
Test CRC E04E9194
Copy CRC E04E9194
Copy OK

Track 5

Filename D:\Uploads\uTorrent\What.CD\The Prodigy - World's On Fire (2011) - FLAC\05 - Thunder.wav

Peak level 98.4 %
Extraction speed 4.2 X
Track quality 100.0 %
Test CRC FD55A52A
Copy CRC FD55A52A
Copy OK

Track 6

Filename D:\Uploads\uTorrent\What.CD\The Prodigy - World's On Fire (2011) - FLAC\06 - Warrior's Dance.wav

Peak level 98.9 %
Extraction speed 4.9 X
Track quality 100.0 %
Test CRC 3C73CA37
Copy CRC 3C73CA37
Copy OK

Track 7

Filename D:\Uploads\uTorrent\What.CD\The Prodigy - World's On Fire (2011) - FLAC\07 - Firestarter.wav

Peak level 96.3 %
Extraction speed 5.1 X
Track quality 100.0 %
Test CRC BE889800
Copy CRC BE889800
Copy OK

Track 8

Filename D:\Uploads\uTorrent\What.CD\The Prodigy - World's On Fire (2011) - FLAC\08 - Run With the Wolves.wav

Peak level 95.2 %
Extraction speed 5.4 X
Track quality 100.0 %
Test CRC 25BFAE74
Copy CRC 25BFAE74
Copy OK

Track 9

Filename D:\Uploads\uTorrent\What.CD\The Prodigy - World's On Fire (2011) - FLAC\09 - Weather Experience.wav

Peak level 95.2 %
Extraction speed 5.5 X
Track quality 100.0 %
Test CRC E80350F7
Copy CRC E80350F7
Copy OK

Track 10

Filename D:\Uploads\uTorrent\What.CD\The Prodigy - World's On Fire (2011) - FLAC\10 - Voodo People.wav

Peak level 97.1 %
Extraction speed 5.6 X
Track quality 100.0 %
Test CRC F3BC0FD1
Copy CRC F3BC0FD1
Copy OK

Track 11

Filename D:\Uploads\uTorrent\What.CD\The Prodigy - World's On Fire (2011) - FLAC\11 - Omen Reprise.wav

Peak level 97.1 %
Extraction speed 4.6 X
Track quality 100.0 %
Test CRC D83C46D1
Copy CRC D83C46D1
Copy OK

Track 12

Filename D:\Uploads\uTorrent\What.CD\The Prodigy - World's On Fire (2011) - FLAC\12 - Invaders Must Die.wav

Peak level 99.8 %
Extraction speed 5.9 X
Track quality 100.0 %
Test CRC ECA148ED
Copy CRC ECA148ED
Copy OK

Track 13

Filename D:\Uploads\uTorrent\What.CD\The Prodigy - World's On Fire (2011) - FLAC\13 - Smack My Bitch Up.wav

Peak level 99.9 %
Extraction speed 6.4 X
Track quality 100.0 %
Test CRC 2FCDCA9D
Copy CRC 2FCDCA9D
Copy OK

Track 14

Filename D:\Uploads\uTorrent\What.CD\The Prodigy - World's On Fire (2011) - FLAC\14 - Take Me to the Hospital.wav

Peak level 97.1 %
Extraction speed 5.0 X
Track quality 99.9 %
Test CRC 15F8868C
Copy CRC 15F8868C
Copy OK

Track 15

Filename D:\Uploads\uTorrent\What.CD\The Prodigy - World's On Fire (2011) - FLAC\15 - Everybody in the Place.wav

Peak level 97.1 %
Extraction speed 6.4 X
Track quality 100.0 %
Test CRC 38BDB7BC
Copy CRC 38BDB7BC
Copy OK

Track 16

Filename D:\Uploads\uTorrent\What.CD\The Prodigy - World's On Fire (2011) - FLAC\16 - Their Law.wav

Peak level 97.1 %
Extraction speed 7.0 X
Track quality 100.0 %
Test CRC 9F2B78EB
Copy CRC 9F2B78EB
Copy OK

Track 17

Filename D:\Uploads\uTorrent\What.CD\The Prodigy - World's On Fire (2011) - FLAC\17 - Out of Space.wav

Peak level 97.1 %
Extraction speed 7.1 X
Track quality 100.0 %
Test CRC 907E0ADB
Copy CRC 907E0ADB
Copy OK

No errors occurred

End of status report

Этот торрент недоступен для скачивания без регистрации, однако доступен по публичной magnet-ссылке (источники с публичных трекеров). Перед использованием ссылки прочтите, пожалуйста Пользовательское соглашение, а также как можно дольше оставайтесь на раздаче! Для того, чтобы скачать сам торрент-файл (который видит больше источников), а также для того, чтобы поблагодарить релизера, вам необходимо зарегистрироваться. Если регистрироваться лень - вы можете также попробовать скачать релиз по нашим партнерским ссылкам ниже. Кроме того, зарегистрированным пользователям не показывается всплывающая реклама при скачивании.

[underverse.su].t14921.torrent
Трекер: Зарегистрирован   [ 25.05.2011 20:39 ]  

Статус: проверено (by M-i-i-i-ke at 25.05.2011 20:39)
Поблагодарили: 1 человек
Тип торрента: публичный - доступные источники с открытых трекеров: 
Размер: 492 MB (занимает 0,11 DVDR, для записи нужно 1 болванка DVDR/RW)
 
 
Похожие темы
Форум Тема Автор Торрент Отв. Посл. сооб.
Electro, Breakbeat, Dubstep (Breakbeat, Breaks, Hip-Hop) Krafty Kuts & Dynamite MC - All 4 Corners (2017) [MP3, 320 kbps CBR] Darkferse
6 | 0

0 | 1099

7

22.05.2017 16:13

Electro, Breakbeat, Dubstep (Breakbeat, Electronic, Big Beat) The Prodigy - Full Discography (1990-2009) [MP3, 128-320 Kbps] 8ad_R060d
26 | 60

1 | 4201

7

24.03.2013 19:41

Electro, Breakbeat, Dubstep (Breakbeat, Big Beat) Goon - Mental Reflex (1997) [MP3, 320 kbps CBR] ost
0 | 0

0 | 1123

5

01.02.2015 13:25

Electro, Breakbeat, Dubstep (Breakbeat, Nu Jazz) Skeewiff - Skeewiff In Wonderland (2017) [MP3, 320 kbps CBR] Darkferse
3 | 0

0 | 693

3

10.04.2017 21:45

Electro, Breakbeat, Dubstep (Breakbeat, Drum & Bass, House) Rick Tedesco - Style Clash Vol. 2 (2017) [MP3, 320 kbps CBR] Darkferse
1 | 0

0 | 679

3

03.06.2017 01:03

Electro, Breakbeat, Dubstep (Breakbeat, Industrial, Electronic) 3D Stas - Industria Psychika (2017) [MP3, 320 kbps CBR] Darkferse
11 | 0

0 | 902

4

10.07.2017 23:04

Electro, Breakbeat, Dubstep (Breakbeat, Neo-Dub, Experimental) Gaudi - Magnetic (2017) [MP3, 320 kbps CBR] Darkferse
5 | 0

0 | 488

2

10.07.2017 23:08

Electro, Breakbeat, Dubstep (Breakbeat, Downtempo, Electronic) KLYNE - Klyne (2017) [MP3, 320 kbps CBR] Darkferse
5 | 0

0 | 572

4

10.07.2017 23:14

Electro, Breakbeat, Dubstep (Breakbeat, Dubstep, Drum & Bass) Mechanical Pressure - Contact LP (2017) [MP3, 320 kbps CBR] Darkferse
1 | 0

0 | 527

2

22.12.2017 20:12

Electro, Breakbeat, Dubstep (Breakbeat, Hip-Hop, Electroclash) Def Cut - Masterpiece (2017) [MP3, 320 kbps CBR] Darkferse
10 | 1

0 | 503

3

24.12.2017 22:25

23-Май-2013 13:04

Топик был перенесен из форума Electro, Breakbeat (Lossless) в форум Архив

Причина переноса: Полного источника не было: 1 год 4 месяца
Бишеп
 

Яндекс.Метрика powered by Sphinx


В Н И М А Н И Е
Сайт не распространяет и не хранит электронные версии произведений, а лишь бесплатно и без коммерческой выгоды (не требуя взамен платы,
SMS и т.д.) предоставляет доступ к создаваемому пользователями каталогу ссылок на торрент-файлы, которые содержат только списки хеш-сумм.
Убедительная просьба с жалобами обращаться напрямую к пользователю, разместившему торрент файл.

Вверх