Loading...
Error

(Smooth Jazz) Matt Marshak - Urban Folktales (2011) [APE (Image+.CUE), lossless]

Статистика раздачи
Размер:  325 MB   |    Зарегистрирован:  4 года 11 месяцев   |    Скачан:  6 раз

Полного источника не было: 1 год 3 месяца

Сидов:  0  |  0 KB/s  ]   Личеров:  0  |  0 KB/s  ]

* - сиды/пиры с внешних источников

   
 
Автор Сообщение

Jimmy Пол:Муж

26-Июн-2011 08:56

Matt Marshak - Urban Folktales

Жанр: Smooth Jazz
Год выпуска: 2011
Производитель диска: Россия (пиратка)
Аудиокодек: APE
Тип рипа: Image+.CUE
Битрейт аудио: lossless
Продолжительность: 57:30
Треклист:
1. Teddy P (4:43)
2. Next to You (6:39)
3. Intro Tell Me How You Feel (0:20)
4. Tell Me How You Feel (4:08)
5. A Silent Knowing (4:36)
6. For So Long (4:43)
7. Piece by Peace (4:29)
8. Harlem River Drive (3:54)
9. Cackalacky Cool (4:51)
10. Time For Takeoff (4:12)
11. Glen Burnie (4:57)
12. Back Yard Party "Will and Maggie's Place" (4:44)
13. Dancin' With My Daughter "Madison's Song" (5:07)
Exact Audio Copy V0.99 prebeta 5 from 4. May 2009
Отчёт EAC об извлечении, выполненном 23. июня 2011, 17:51
Matt Marshak / Urban Folktales
Дисковод: PIONEER DVD-RW DVR-215D Adapter: 3 ID: 0
Режим чтения : Достоверность
Использование точного потока : Да
Отключение кэша аудио : Да
Использование указателей C2 : Нет
Коррекция смещения при чтении : 48
Способность читать области Lead-in и Lead-out : Нет
Заполнение пропущенных сэмплов тишиной : Да
Удаление блоков с тишиной в начале и конце : Нет
При вычислениях CRC использовались нулевые сэмплы : Да
Интерфейс : Встроенный Win32-интерфейс для Win NT/2000
Выходной формат : Внутренние WAV-операции
Формат сэмплов : 44.100 Гц; 16 бит; стерео
TOC извлечённого CD
Трек | Старт | Длительность | Начальный сектор | Конечный сектор
---------------------------------------------------------------------
1 | 0:00.00 | 4:43.19 | 0 | 21243
2 | 4:43.19 | 6:39.61 | 21244 | 51229
3 | 11:23.05 | 0:20.60 | 51230 | 52789
4 | 11:43.65 | 4:08.39 | 52790 | 71428
5 | 15:52.29 | 4:36.63 | 71429 | 92191
6 | 20:29.17 | 4:43.11 | 92192 | 113427
7 | 25:12.28 | 4:29.72 | 113428 | 133674
8 | 29:42.25 | 3:54.74 | 133675 | 151298
9 | 33:37.24 | 4:51.53 | 151299 | 173176
10 | 38:29.02 | 4:12.14 | 173177 | 192090
11 | 42:41.16 | 4:57.07 | 192091 | 214372
12 | 47:38.23 | 4:44.02 | 214373 | 235674
13 | 52:22.25 | 5:07.37 | 235675 | 258736
Характеристики диапазона извлечения и сообщения об ошибках
Выбранный диапазон
Имя файла E:\обработать\Matt Marshak - Urban Folktales.wav
Пиковый уровень 98.8 %
Качество диапазона 99.9 %
CRC копии FF39EC91
Копирование... OK
Ошибок не произошло
AccurateRip: сводка
Трек 1 нет в базе данных
Трек 2 нет в базе данных
Трек 3 нет в базе данных
Трек 4 нет в базе данных
Трек 5 нет в базе данных
Трек 6 нет в базе данных
Трек 7 нет в базе данных
Трек 8 нет в базе данных
Трек 9 нет в базе данных
Трек 10 нет в базе данных
Трек 11 нет в базе данных
Трек 12 нет в базе данных
Трек 13 нет в базе данных
Ни одного трека нет в базе AccurateRip
Конец отчёта

Этот торрент недоступен для скачивания без регистрации, однако доступен по публичной magnet-ссылке (источники с публичных трекеров). Перед использованием ссылки прочтите, пожалуйста Пользовательское соглашение, а также как можно дольше оставайтесь на раздаче! Для того, чтобы скачать сам торрент-файл (который видит больше источников), а также для того, чтобы поблагодарить релизера, вам необходимо зарегистрироваться. Если регистрироваться лень - вы можете также попробовать скачать релиз по нашим партнерским ссылкам ниже. Кроме того, зарегистрированным пользователям не показывается всплывающая реклама при скачивании.

[underverse.su].t30694.torrent
Трекер: Зарегистрирован   [ 07.09.2013 10:36 ]  

Статус: проверено (by Бишеп at 07.09.2013 10:36)
Поблагодарили: 1 человек
Тип торрента: публичный - доступные источники с открытых трекеров: 
Размер: 325 MB (занимает 0,07 DVDR, для записи нужно 1 болванка DVDR/RW)
 
 
Похожие темы
Форум Тема Автор Торрент Отв. Посл. сооб.
Сборники (Smooth Jazz, Lounge, Easy Listening) VA - Smooth Cocktail, Taste Of Lounge, Vol. 1 (Relaxing Appetizer, ChillOut Session Mojito) (2015) [MP3, 320 kbps CBR] Evgenii82
0 | 0

0 | 1151

11

17.01.2015 13:04

Jazz (Smooth Jazz, Funk) U-Nam - C'est Le Funk (2014) [FLAC (Image+.CUE), Lossless] Бишеп
0 | 0

0 | 1518

22

31.10.2014 13:34

Jazz (Smooth Jazz, Soul) Grover Washington Jr. - Коллекция (1971-2000) [MP3, 128-320 kbps CBR] Боцман
0 | 0

0 | 245

2

17.03.2018 17:35

Jazz (Smooth Jazz) Threestyle (Feat. Magdalena Chovancova) - Smooth Ride (2017) [MP3, 320 kbps CBR] Darkferse
1 | 0

0 | 808

4

19.03.2017 10:24

Jazz (Smooth Jazz) Marcus Anderson - Limited Edition (2017) [MP3, 320 kbps CBR] Darkferse
2 | 0

0 | 762

7

19.03.2017 11:17

Jazz (Smooth Jazz) William Staggers - Late Blossom (2017) [MP3, 320 kbps CBR] Darkferse
1 | 0

0 | 637

5

06.04.2017 16:38

Jazz (Smooth Jazz) Daniel Chia - In The Moment (2017) [MP3, 320 kbps CBR] Darkferse
1 | 0

0 | 616

3

06.04.2017 16:42

Jazz (Smooth Jazz) Gabriel Bello - Steveland (2017) [MP3, 320 kbps CBR] Darkferse
2 | 0

0 | 725

4

23.05.2017 09:40

Jazz (Smooth Jazz) Dexter Tolson - A Different Kind Of Smooth (2017) [MP3, 320 kbps CBR] Darkferse
2 | 0

0 | 624

5

30.05.2017 16:28

Jazz (Smooth Jazz) Jean-Michel Cabrol Jazz 4tet - La Route Bleue (2017) [MP3, 320 kbps CBR] Darkferse
1 | 0

0 | 296

4

12.12.2017 12:59

Бишеп Пол:Муж

07-Сен-2013 11:12

ТФ обновлён.

Яндекс.Метрика powered by Sphinx


В Н И М А Н И Е
Сайт не распространяет и не хранит электронные версии произведений, а лишь бесплатно и без коммерческой выгоды (не требуя взамен платы,
SMS и т.д.) предоставляет доступ к создаваемому пользователями каталогу ссылок на торрент-файлы, которые содержат только списки хеш-сумм.
Убедительная просьба с жалобами обращаться напрямую к пользователю, разместившему торрент файл.

Вверх