Loading...
Error

(Punk Rock) Сектор Газа - Ночь Перед Рождеством (1994) [FLAC (Image+.CUE), Lossless]

Статистика раздачи
Размер:  305 MB   |    Зарегистрирован:  2 года 2 месяца   |    Скачан:  2 раза
Сидов:  1  |  0 KB/s  ]   Личеров:  0  |  0 KB/s  ]

* - сиды/пиры с внешних источников

   
 
Автор Сообщение

Бишеп Пол:Муж

29-Мар-2012 12:58

Сектор Газа - Ночь Перед Рождеством

Жанр: Punk Rock
Год выпуска: 1994
Источник: CD
Производитель диска: Gala Records - GL 10175
Аудиокодек: FLAC
Тип рипа: Image+.CUE
Битрейт аудио: lossless
Продолжительность: 00:43:16


Треклист:
01. Привет, ребята, добрый день
02. Ява
03. Шары
04. Давай-давай
05. Белая горячка
06. Голубь
07. Презерватив
08. Презерватив-2
09. Щи
10. Здравствуйте, детишки
11. Снегурочка
12. Илья Муромец
13. Кума
14. Ночь перед Рождеством

Код:

Exact Audio Copy V1.0 beta 3 from 29. August 2011

Отчёт EAC об извлечении, выполненном 18. июля 2016, 15:57

Сектор Газа / Ночь перед Рождеством

Дисковод: TSSTcorpCDDVDW SH-224DB   Adapter: 0  ID: 1

Режим чтения                 : Достоверность
Использование точного потока : Да
Отключение кэша аудио        : Да
Использование указателей C2  : Нет

Коррекция смещения при чтении                     : 6
Способность читать области Lead-in и Lead-out     : Нет
Заполнение пропущенных сэмплов тишиной            : Да
Удаление блоков с тишиной в начале и конце        : Нет
При вычислениях CRC использовались нулевые сэмплы : Да
Интерфейс                                         : Установленный внешний ASPI-интерфейс

Выходной формат          : Пользовательский кодировщик
Выбранный битрейт        : 1024 kBit/s
Качество                 : Высокий
Добавление ID3-тега      : Нет
Утилита сжатия           : D:\Program Files\Exact Audio Copy\FLAC\FLAC.EXE
Дополнительные параметры : -V -8 -T "Genre=%genre%" -T "Artist=%artist%" -T "Title=%title%" -T "Album=%albumtitle%" -T "Date=%year%" -T "Tracknumber=%tracknr%" -T "Comment=%comment%" %source%

TOC извлечённого CD

     Трек |   Старт  | Длительность | Начальный сектор | Конечный сектор
    ---------------------------------------------------------------------
       1  |  0:00.00 |    2:28.37   |           0      |      11136     
       2  |  2:28.37 |    4:37.38   |       11137      |      31949     
       3  |  7:06.00 |    2:38.05   |       31950      |      43804     
       4  |  9:44.05 |    3:12.72   |       43805      |      58276     
       5  | 12:57.02 |    3:12.63   |       58277      |      72739     
       6  | 16:09.65 |    3:52.27   |       72740      |      90166     
       7  | 20:02.17 |    2:28.65   |       90167      |     101331     
       8  | 22:31.07 |    2:32.30   |      101332      |     112761     
       9  | 25:03.37 |    3:47.10   |      112762      |     129796     
      10  | 28:50.47 |    0:45.45   |      129797      |     133216     
      11  | 29:36.17 |    3:39.18   |      133217      |     149659     
      12  | 33:15.35 |    2:49.47   |      149660      |     162381     
      13  | 36:05.07 |    2:41.68   |      162382      |     174524     
      14  | 38:47.00 |    4:30.00   |      174525      |     194774     

Характеристики диапазона извлечения и сообщения об ошибках

Выбранный диапазон

     Имя файла D:\Desktop\Сектор Газа - Ночь Перед Рождеством (1994)\Сектор Газа - Ночь перед Рождеством.wav

     Пиковый уровень 93.6 %
     Скорость извлечения 2.7 X
     Качество диапазона 100.0 %
     CRC теста 1BEF6B8B
     CRC копии 1BEF6B8B
     Копирование... OK

Ошибок не произошло

 
AccurateRip: сводка
 
Трек  1  : извлечено точно (доверие 4)  [EAB3369E]  (AR v2)
Трек  2  : извлечено точно (доверие 4)  [7BC4B216]  (AR v2)
Трек  3  : извлечено точно (доверие 4)  [AF3B5871]  (AR v2)
Трек  4  : извлечено точно (доверие 4)  [4ADA609C]  (AR v2)
Трек  5  : извлечено точно (доверие 4)  [069D7477]  (AR v2)
Трек  6  : извлечено точно (доверие 4)  [F763CD6E]  (AR v2)
Трек  7  : извлечено точно (доверие 4)  [8E7759BB]  (AR v2)
Трек  8  : извлечено точно (доверие 4)  [FD1FBDE5]  (AR v2)
Трек  9  : извлечено точно (доверие 4)  [3AF09E5A]  (AR v2)
Трек 10  : извлечено точно (доверие 4)  [B813B9F3]  (AR v2)
Трек 11  : извлечено точно (доверие 4)  [5290110E]  (AR v2)
Трек 12  : извлечено точно (доверие 4)  [553C2197]  (AR v2)
Трек 13  : извлечено точно (доверие 4)  [A0D90A86]  (AR v2)
Трек 14  : извлечено точно (доверие 4)  [3778F18E]  (AR v2)
 
Все треки извлечены точно

Конец отчёта

==== Контрольная сумма отчёта 9BFDE3D0BBF2A58C80912B34C591DB6E9B43969663DB83D74A0130F6A0EA1FF0 ====

Код:

REM GENRE "Punk Rock"
REM DATE 1994
REM DISCID CD0A250E
REM COMMENT "ExactAudioCopy v1.0b3"
PERFORMER "Сектор Газа"
TITLE "Ночь перед Рождеством"
FILE "Сектор Газа - Ночь перед Рождеством.flac" WAVE
  TRACK 01 AUDIO
    TITLE "Привет, ребята, добрый день"
    PERFORMER "Сектор Газа"
    INDEX 01 00:00:00
  TRACK 02 AUDIO
    TITLE "Ява"
    PERFORMER "Сектор Газа"
    INDEX 01 02:28:37
  TRACK 03 AUDIO
    TITLE "Шары"
    PERFORMER "Сектор Газа"
    INDEX 00 07:04:45
    INDEX 01 07:06:00
  TRACK 04 AUDIO
    TITLE "Давай-давай"
    PERFORMER "Сектор Газа"
    INDEX 00 09:43:32
    INDEX 01 09:44:05
  TRACK 05 AUDIO
    TITLE "Белая горячка"
    PERFORMER "Сектор Газа"
    INDEX 00 12:56:20
    INDEX 01 12:57:02
  TRACK 06 AUDIO
    TITLE "Голубь"
    PERFORMER "Сектор Газа"
    INDEX 00 16:08:27
    INDEX 01 16:09:65
  TRACK 07 AUDIO
    TITLE "Презерватив"
    PERFORMER "Сектор Газа"
    INDEX 00 19:59:65
    INDEX 01 20:02:17
  TRACK 08 AUDIO
    TITLE "Презерватив 2"
    PERFORMER "Сектор Газа"
    INDEX 00 22:30:05
    INDEX 01 22:31:07
  TRACK 09 AUDIO
    TITLE "Щи"
    PERFORMER "Сектор Газа"
    INDEX 00 25:03:07
    INDEX 01 25:03:37
  TRACK 10 AUDIO
    TITLE "Здравствуйте, детишки"
    PERFORMER "Сектор Газа"
    INDEX 00 28:50:00
    INDEX 01 28:50:47
  TRACK 11 AUDIO
    TITLE "Снегурочка"
    PERFORMER "Сектор Газа"
    INDEX 00 29:35:12
    INDEX 01 29:36:17
  TRACK 12 AUDIO
    TITLE "Илья Муромец"
    PERFORMER "Сектор Газа"
    INDEX 00 33:13:45
    INDEX 01 33:15:35
  TRACK 13 AUDIO
    TITLE "Кума"
    PERFORMER "Сектор Газа"
    INDEX 00 36:04:05
    INDEX 01 36:05:07
  TRACK 14 AUDIO
    TITLE "Ночь перед Рождеством"
    PERFORMER "Сектор Газа"
    INDEX 00 38:46:10
    INDEX 01 38:47:00

Этот торрент недоступен для скачивания без регистрации, однако доступен по публичной magnet-ссылке (источники с публичных трекеров). Перед использованием ссылки прочтите, пожалуйста Пользовательское соглашение, а также как можно дольше оставайтесь на раздаче! Для того, чтобы скачать сам торрент-файл (который видит больше источников), а также для того, чтобы поблагодарить релизера, вам необходимо зарегистрироваться. Если регистрироваться лень - вы можете также попробовать скачать релиз по нашим партнерским ссылкам ниже. Кроме того, зарегистрированным пользователям не показывается всплывающая реклама при скачивании.

[underverse.su].t68181.torrent
Трекер: Зарегистрирован   [ 18.07.2016 13:50 ]  

Статус: проверено (by Бишеп at 18.07.2016 13:51)
Поблагодарили: пока никто не поблагодарил...
Тип торрента: публичный - доступные источники с открытых трекеров: 
Размер: 305 MB (занимает 0,07 DVDR, для записи нужно 1 болванка DVDR/RW)
 
 
Похожие темы
Форум Тема Автор Торрент Отв. Посл. сооб.
Зарубежный Punk, Hardcore, Grunge, Alternative (Punk Rock/Street Punk) BRDigung - In Goldenen Ketten (2014) [MP3, 320 kbps] Jimmy
1 | 0

0 | 1124

4

23.04.2014 16:00

Зарубежный Punk, Hardcore, Grunge, Alternative (Punk Rock/Heavy Punk) Desakato - Buen Viaje (2014) [MP3, 320 kbps] Jimmy
1 | 0

0 | 836

5

23.04.2014 15:53

Зарубежный Punk, Hardcore, Grunge, Alternative (Punk Rock) Richie Ramone - Entitled [ex-Ramones] (2013) [MP3, 320 kbps] Jimmy
1 | 0

0 | 2112

2

21.12.2013 08:03

Зарубежный Punk, Hardcore, Grunge, Alternative (Punk Rock/Old School Pop Punk) The Bugs - 2 альбома (The Bugs/Missile To The Middle East) (2008/2013) [MP3, 320 kbps] Jimmy
1 | 0

0 | 2180

0

21.12.2013 08:06

Зарубежный Punk, Hardcore, Grunge, Alternative (Punk Rock) The So So Glos - Blowout (2013) [MP3, 320 kbps] Jimmy
1 | 0

0 | 1873

1

04.01.2014 10:17

Зарубежный Punk, Hardcore, Grunge, Alternative (Punk Rock | Melodic Hardcore) Noopinion - No Chains For Change (2013) [MP3, 320 kbps] Jimmy
0 | 0

0 | 1821

2

04.01.2014 14:20

Зарубежный Punk, Hardcore, Grunge, Alternative (Punk Rock) Stiff Little Fingers - No Going Back (2014) [MP3, 320 kbps] Jimmy
1 | 6

0 | 1805

5

23.03.2014 05:20

Зарубежный Punk, Hardcore, Grunge, Alternative (Punk Rock, Skate Punk, Melodic Punk) Authority Zero - Broadcasting To The Nations (2017) [MP3, 320 kbps CBR] Darkferse
2 | 0

0 | 899

2

02.06.2017 15:14

Зарубежный Punk, Hardcore, Grunge, Alternative (Punk Rock, Reggae) Anti-Nowhere League - League Style (Loosen Up Volume 1) (2017) [MP3, 320 kbps CBR] Darkferse
1 | 1

0 | 502

1

05.06.2017 23:58

Зарубежный Punk, Hardcore, Grunge, Alternative (Punk Rock) Beatsteaks - YOURS (2017) [MP3, 320 kbps CBR] Darkferse
1 | 0

0 | 571

1

06.09.2017 10:18



Последний раз редактировалось: Бишеп (18.07.2016 13:50), всего редактировалось 5 раз(а)

Shimon Пол:Муж

29-Мар-2012 15:35

Эх! Лирика для души! :Yahoo!:

Бишеп Пол:Муж

29-Мар-2012 15:50

Shimon
Да,да сам люблю под пивко!

Яндекс.Метрика powered by Sphinx


В Н И М А Н И Е
Сайт не распространяет и не хранит электронные версии произведений, а лишь бесплатно и без коммерческой выгоды (не требуя взамен платы,
SMS и т.д.) предоставляет доступ к создаваемому пользователями каталогу ссылок на торрент-файлы, которые содержат только списки хеш-сумм.
Убедительная просьба с жалобами обращаться напрямую к пользователю, разместившему торрент файл.

Вверх