Loading...
Error

(Dark Electro/EBM/Industrial) Velvet Acid Christ - Maldire (2012) [FLAC (Tracks+.CUE), lossless]

Статистика раздачи
Размер:  411 MB   |    Зарегистрирован:  5 лет 10 месяцев   |    Скачан:  4 раза

Полного источника не было: 7 месяцев

Сидов:  0  |  0 KB/s  ]   Личеров:  0  |  0 KB/s  ]

* - сиды/пиры с внешних источников

   
 
Автор Сообщение

Jimmy Пол:Муж

21-Сен-2012 18:28

Velvet Acid Christ - Maldire

Жанр: Dark Electro/EBM/Industrial
Год выпуска: 2012
Производитель диска: Metropolis Records
Аудиокодек: FLAC
Тип рипа: Tracks+.CUE
Битрейт аудио: lossless
Продолжительность: 00:53:16
Треклист:
01. Evoked (4:55)
02. Septic Rinse (5:05)
03. Bend the Sky (5:09)
04. Wasted (4:48)
05. Hyper Curse (4:41)
06. Ominous Rattle (5:04)
07. Maldire (5:42)
08. Inhale Blood (4:59)
09. Christ Whore (4:55)
10. Dream Curse (3:02)
11. Mysteric (4:56)

Код:

Exact Audio Copy V1.0 beta 3 from 29. August 2011
EAC extraction logfile from 14. September 2012, 18:32
Velvet Acid Christ / Maldire
Used drive  : ASUS    DRW-24B1ST   Adapter: 3  ID: 0
Read mode               : Secure
Utilize accurate stream : Yes
Defeat audio cache      : Yes
Make use of C2 pointers : No
Read offset correction                      : 6
Overread into Lead-In and Lead-Out          : No
Fill up missing offset samples with silence : Yes
Delete leading and trailing silent blocks   : No
Null samples used in CRC calculations       : Yes
Used interface                              : Native Win32 interface for Win NT & 2000
Gap handling                                : Appended to previous track
Used output format              : User Defined Encoder
Selected bitrate                : 1024 kBit/s
Quality                         : High
Add ID3 tag                     : No
Command line compressor         : C:\Program Files (x86)\Exact Audio Copy\Flac\flac.exe
Additional command line options : -8 -V -T "ARTIST=%artist%" -T "TITLE=%title%" -T "ALBUM=%albumtitle%" -T "DATE=%year%" -T "TRACKNUMBER=%tracknr%" -T "GENRE=%genre%" -T "PERFORMER=%albuminterpret%" -T "COMPOSER=%composer%" %haslyrics%--tag-from-file=LYRICS="%lyricsfile%"%haslyrics% -T "ALBUMARTIST=%albumartist%" -T "DISCNUMBER=%cdnumber%" -T "TOTALDISCS=%totalcds%" -T "TOTALTRACKS=%numtracks%" -T "COMMENT=%comment%" %source% -o %dest%
TOC of the extracted CD
     Track |   Start  |  Length  | Start sector | End sector
    ---------------------------------------------------------
        1  |  0:00.00 |  4:54.54 |         0    |    22103
        2  |  4:54.54 |  5:00.13 |     22104    |    44616
        3  |  9:54.67 |  5:08.38 |     44617    |    67754
        4  | 15:03.30 |  4:47.44 |     67755    |    89323
        5  | 19:50.74 |  4:44.02 |     89324    |   110625
        6  | 24:35.01 |  5:05.73 |    110626    |   133573
        7  | 29:40.74 |  5:45.15 |    133574    |   159463
        8  | 35:26.14 |  5:02.01 |    159464    |   182114
        9  | 40:28.15 |  4:53.35 |    182115    |   204124
       10  | 45:21.50 |  3:04.68 |    204125    |   217992
       11  | 48:26.43 |  4:50.34 |    217993    |   239776
Track  1
     Filename C:\EAC rips\Velvet Acid Christ - Maldire [flac]\01 - Evoked.wav
     Pre-gap length  0:00:02.00
     Peak level 100.0 %
     Extraction speed 3.7 X
     Track quality 100.0 %
     Test CRC 73031FC0
     Copy CRC 73031FC0
     Track not present in AccurateRip database
     Copy OK
Track  2
     Filename C:\EAC rips\Velvet Acid Christ - Maldire [flac]\02 - Septic Rinse.wav
     Peak level 100.0 %
     Extraction speed 4.2 X
     Track quality 100.0 %
     Test CRC 1777B6B4
     Copy CRC 1777B6B4
     Track not present in AccurateRip database
     Copy OK
Track  3
     Filename C:\EAC rips\Velvet Acid Christ - Maldire [flac]\03 - Bend The Sky.wav
     Pre-gap length  0:00:00.73
     Peak level 100.0 %
     Extraction speed 4.7 X
     Track quality 100.0 %
     Test CRC 72FBB219
     Copy CRC 72FBB219
     Track not present in AccurateRip database
     Copy OK
Track  4
     Filename C:\EAC rips\Velvet Acid Christ - Maldire [flac]\04 - Wasted.wav
     Pre-gap length  0:00:01.62
     Peak level 100.0 %
     Extraction speed 5.0 X
     Track quality 100.0 %
     Test CRC BD78CD56
     Copy CRC BD78CD56
     Track not present in AccurateRip database
     Copy OK
Track  5
     Filename C:\EAC rips\Velvet Acid Christ - Maldire [flac]\05 - HyperCurse.wav
     Pre-gap length  0:00:01.98
     Peak level 100.0 %
     Extraction speed 5.4 X
     Track quality 100.0 %
     Test CRC 1059FF4D
     Copy CRC 1059FF4D
     Track not present in AccurateRip database
     Copy OK
Track  6
     Filename C:\EAC rips\Velvet Acid Christ - Maldire [flac]\06 - Ominous Rattle.wav
     Pre-gap length  0:00:03.06
     Peak level 100.0 %
     Extraction speed 5.7 X
     Track quality 100.0 %
     Test CRC 53C025C3
     Copy CRC 53C025C3
     Track not present in AccurateRip database
     Copy OK
Track  7
     Filename C:\EAC rips\Velvet Acid Christ - Maldire [flac]\07 - Maldire.wav
     Pre-gap length  0:00:02.13
     Peak level 100.0 %
     Extraction speed 6.1 X
     Track quality 100.0 %
     Test CRC F12D09F8
     Copy CRC F12D09F8
     Track not present in AccurateRip database
     Copy OK
Track  8
     Filename C:\EAC rips\Velvet Acid Christ - Maldire [flac]\08 - Inhale Blood.wav
     Pre-gap length  0:00:03.24
     Peak level 100.0 %
     Extraction speed 6.3 X
     Track quality 100.0 %
     Test CRC C9E49870
     Copy CRC C9E49870
     Track not present in AccurateRip database
     Copy OK
Track  9
     Filename C:\EAC rips\Velvet Acid Christ - Maldire [flac]\09 - Christ Whore.wav
     Pre-gap length  0:00:03.22
     Peak level 100.0 %
     Extraction speed 5.5 X
     Track quality 99.9 %
     Test CRC E81613BB
     Copy CRC E81613BB
     Track not present in AccurateRip database
     Copy OK
Track 10
     Filename C:\EAC rips\Velvet Acid Christ - Maldire [flac]\10 - Dream Curse.wav
     Pre-gap length  0:00:02.41
     Peak level 100.0 %
     Extraction speed 4.9 X
     Track quality 99.9 %
     Test CRC 9F5C2FEB
     Copy CRC 9F5C2FEB
     Track not present in AccurateRip database
     Copy OK
Track 11
     Filename C:\EAC rips\Velvet Acid Christ - Maldire [flac]\11 - Mysteric.wav
     Pre-gap length  0:00:03.08
     Peak level 100.0 %
     Extraction speed 7.0 X
     Track quality 100.0 %
     Test CRC BF8FD7F7
     Copy CRC BF8FD7F7
     Track not present in AccurateRip database
     Copy OK
None of the tracks are present in the AccurateRip database
No errors occurred
End of status report
---- CUETools DB Plugin V2.1.3
[CTDB TOCID: jO8s4EzW1Vj682k84mJjYFN49ls-] disk not present in database, Submit result: jO8s4EzW1Vj682k84mJjYFN49ls- has been uploaded
==== Log checksum C8018D57DF0F0F0504826D47A866385F51F170B41C35830BA15E4506B57B4871 ====

Этот торрент недоступен для скачивания без регистрации, однако доступен по публичной magnet-ссылке (источники с публичных трекеров). Перед использованием ссылки прочтите, пожалуйста Пользовательское соглашение, а также как можно дольше оставайтесь на раздаче! Для того, чтобы скачать сам торрент-файл (который видит больше источников), а также для того, чтобы поблагодарить релизера, вам необходимо зарегистрироваться. Если регистрироваться лень - вы можете также попробовать скачать релиз по нашим партнерским ссылкам ниже. Кроме того, зарегистрированным пользователям не показывается всплывающая реклама при скачивании.

[underverse.su].t20041.torrent
Трекер: Зарегистрирован   [ 21.09.2012 18:28 ]  

Статус: проверено (by Jimmy at 21.09.2012 18:28)
Поблагодарили: пока никто не поблагодарил...
Тип торрента: публичный - доступные источники с открытых трекеров: 
Размер: 411 MB (занимает 0,09 DVDR, для записи нужно 1 болванка DVDR/RW)
 
 
Похожие темы
Форум Тема Автор Торрент Отв. Посл. сооб.
EBM, Industrial, Dark Electro, Darkwave, Gothic Synth (Dark Electro, EBM, Industrial) [Re]noized - I Am Your Sin (2014) [MP3, 320 kbps] ANDRAKO
0 | 0

0 | 613

2

09.12.2016 09:32

EBM, Industrial, Dark Electro, Darkwave, Gothic Synth (Dark Electro, EBM, Industrial) Parasite Of God - Outcasts And Freaks (2016) [MP3, 320 kbps] ANDRAKO
2 | 0

0 | 644

4

27.12.2016 08:32

EBM, Industrial, Dark Electro, Darkwave, Gothic Synth (Dark Electro, EBM, Industrial) The Anger Machine - Let Fear Become Anger (2014) [MP3, 320 kbps] ANDRAKO
0 | 0

0 | 548

2

30.11.2016 17:18

EBM, Industrial, Dark Electro, Darkwave, Gothic Synth (Dark Electro) Device Noize - Sexaddiction (2014) [MP3, 220-260 kbps VBR] ANDRAKO
1 | 0

0 | 477

1

27.11.2016 09:58

EBM, Industrial, Dark Electro, Darkwave, Gothic Synth (Dark Electro) Device Noize - Tabues (2014) [MP3, 320 kbps] ANDRAKO
1 | 0

0 | 632

2

27.11.2016 09:49

EBM, Industrial, Dark Electro, Darkwave, Gothic Synth (Dark Electro, Harsh EBM, Industrial) Acylum - Pest (Bonus Tracks Version) (2015) [MP3, 320 kbps] ANDRAKO
5 | 1

0 | 641

6

22.12.2016 14:53

EBM, Industrial, Dark Electro, Darkwave, Gothic Synth (Dark Electro / DarkWave) XMH - State Of Mind (2010) [MP3, 320 kbps CBR] Jimmy
1 | 0

1 | 1767

7

18.02.2013 18:37

EBM, Industrial, Dark Electro, Darkwave, Gothic Synth (Dark Electro, EBM, Industrial) Synthetica - The City Of Dis (2013) [MP3, 320 kbps] ANDRAKO
1 | 0

0 | 337

1

17.11.2016 17:59

EBM, Industrial, Dark Electro, Darkwave, Gothic Synth (Dark Electro, Industrial, Punk Rap) Universally Unnecessary - The Uprising (2014) [MP3, 320 kbps] ANDRAKO
0 | 0

0 | 473

1

13.11.2016 09:15

EBM, Industrial, Dark Electro, Darkwave, Gothic Synth (Dark Electro) Midian Dite - The Path Of Truth (Russian Release) (2016) [MP3, 320 kbps] ANDRAKO
5 | 0

0 | 477

3

10.11.2016 15:00


Яндекс.Метрика powered by Sphinx


В Н И М А Н И Е
Сайт не распространяет и не хранит электронные версии произведений, а лишь бесплатно и без коммерческой выгоды (не требуя взамен платы,
SMS и т.д.) предоставляет доступ к создаваемому пользователями каталогу ссылок на торрент-файлы, которые содержат только списки хеш-сумм.
Убедительная просьба с жалобами обращаться напрямую к пользователю, разместившему торрент файл.

Вверх