Loading...
Error

(Hard Bop, Chamber Jazz) Randy Klein's Two Duos - What’s Next? (2012) [FLAC (Tracks+.CUE), lossless]

Статистика раздачи
Размер:  268 MB   |    Зарегистрирован:  5 лет 8 месяцев   |    Скачан:  2 раза

Полного источника не было: 5 лет 2 месяца

Сидов:  0  |  0 KB/s  ]   Личеров:  1  |  0 KB/s  ]

* - сиды/пиры с внешних источников

   
 
Автор Сообщение

NiiggazCPT 

21-Ноя-2012 13:10

Randy Klein's Two Duos - What’s Next?

Жанр: Hard Bop, Chamber Jazz
Год выпуска: 2012
Производитель диска: Jazzheads (JH1197)
Аудиокодек: FLAC
Тип рипа: Tracks+.CUE
Битрейт аудио: lossless
Продолжительность: 00:59:03

Треклист:

01. Exalted Kingdom - 4:42
02. What's Next? - 4:38
03. Casa China - 4:09
04. Dear Charles Mingus - 4:10
05. No - 3:48
06. Lark - 3:19
07. Where's My Glasses - 5:59
08. Tea For Three - 4:01
09. Pere La Chaise - 4:47
10. Inner Voice - 5:03
11. In The Twilight Hours - 6:23
12. Return To Splendor - 8:03
Randy Klein - Piano
Alex Skolnick - Guitar
Boris Kozlov - Electric Bass Guitar
Exact Audio Copy V1.0 beta 3 from 29. August 2011

EAC extraction logfile from 19. November 2012, 22:23

Randy Klein / What’s Next?

Used drive : HL-DT-STDVD-RAM GSA-H55N Adapter: 0 ID: 2

Read mode : Secure
Utilize accurate stream : Yes
Defeat audio cache : Yes
Make use of C2 pointers : No

Read offset correction : 102
Overread into Lead-In and Lead-Out : Yes
Fill up missing offset samples with silence : Yes
Delete leading and trailing silent blocks : No
Null samples used in CRC calculations : Yes
Used interface : Native Win32 interface for Win NT & 2000
Gap handling : Appended to previous track

Used output format : User Defined Encoder
Selected bitrate : 128 kBit/s
Quality : High
Add ID3 tag : No
Command line compressor : G:\Program Files\Exact Audio Copy\Encoder\flac.exe
Additional command line options : -V -8 -T "Genre=%genre%" -T "Artist=%artist%" -T "Title=%title%" -T "Album=%albumtitle%" -T "Date=%year%" -T "Tracknumber=%tracknr%" -T "Comment=EAC1.0b3 FLAC -8" %source%

TOC of the extracted CD

Track | Start | Length | Start sector | End sector
---------------------------------------------------------
1 | 0:00.00 | 4:42.35 | 0 | 21184
2 | 4:42.35 | 4:37.47 | 21185 | 42006
3 | 9:20.07 | 4:09.30 | 42007 | 60711
4 | 13:29.37 | 4:10.13 | 60712 | 79474
5 | 17:39.50 | 3:48.00 | 79475 | 96574
6 | 21:27.50 | 3:19.00 | 96575 | 111499
7 | 24:46.50 | 5:58.47 | 111500 | 138396
8 | 30:45.22 | 4:00.55 | 138397 | 156451
9 | 34:46.02 | 4:47.25 | 156452 | 178001
10 | 39:33.27 | 5:03.28 | 178002 | 200754
11 | 44:36.55 | 6:23.20 | 200755 | 229499
12 | 51:00.00 | 8:02.70 | 229500 | 265719

Track 1

Filename F:\WAV\01 - Exalted Kingdom.wav

Pre-gap length 0:00:02.00

Peak level 100.0 %
Extraction speed 4.7 X
Track quality 100.0 %
Test CRC 17093DB6
Copy CRC 17093DB6
Track not present in AccurateRip database
Copy OK

Track 2

Filename F:\WAV\02 - What's Next.wav

Pre-gap length 0:00:02.05

Peak level 99.9 %
Extraction speed 5.2 X
Track quality 100.0 %
Test CRC 13CF421F
Copy CRC 13CF421F
Track not present in AccurateRip database
Copy OK

Track 3

Filename F:\WAV\03 - Casa China.wav

Peak level 94.0 %
Extraction speed 5.5 X
Track quality 100.0 %
Test CRC 242A4E80
Copy CRC 242A4E80
Track not present in AccurateRip database
Copy OK

Track 4

Filename F:\WAV\04 - Dear Charles Mingus.wav

Pre-gap length 0:00:02.37

Peak level 99.6 %
Extraction speed 5.8 X
Track quality 100.0 %
Test CRC CFBF2AC3
Copy CRC CFBF2AC3
Track not present in AccurateRip database
Copy OK

Track 5

Filename F:\WAV\05 - No.wav

Pre-gap length 0:00:01.50

Peak level 99.6 %
Extraction speed 5.0 X
Track quality 100.0 %
Test CRC DD04E771
Copy CRC DD04E771
Track not present in AccurateRip database
Copy OK

Track 6

Filename F:\WAV\06 - Lark.wav

Pre-gap length 0:00:03.08

Peak level 99.5 %
Extraction speed 6.2 X
Track quality 100.0 %
Test CRC 97AE671F
Copy CRC 97AE671F
Track not present in AccurateRip database
Copy OK

Track 7

Filename F:\WAV\07 - Where's My Glasses.wav

Pre-gap length 0:00:00.05

Peak level 99.5 %
Extraction speed 7.0 X
Track quality 100.0 %
Test CRC 4E758186
Copy CRC 4E758186
Track not present in AccurateRip database
Copy OK

Track 8

Filename F:\WAV\08 - Tea For Three.wav

Pre-gap length 0:00:03.12

Peak level 98.1 %
Extraction speed 7.0 X
Track quality 100.0 %
Test CRC 00DF210D
Copy CRC 00DF210D
Track not present in AccurateRip database
Copy OK

Track 9

Filename F:\WAV\09 - Pere La Chaise.wav

Peak level 99.5 %
Extraction speed 7.3 X
Track quality 100.0 %
Test CRC 7AF60D92
Copy CRC 7AF60D92
Track not present in AccurateRip database
Copy OK

Track 10

Filename F:\WAV\10 - Inner Voice.wav

Pre-gap length 0:00:00.55

Peak level 99.6 %
Extraction speed 7.5 X
Track quality 100.0 %
Test CRC 4CC9CA12
Copy CRC 4CC9CA12
Track not present in AccurateRip database
Copy OK

Track 11

Filename F:\WAV\11 - In The Twilight Hours.wav

Pre-gap length 0:00:00.48

Peak level 99.5 %
Extraction speed 8.0 X
Track quality 100.0 %
Test CRC 16ADF98D
Copy CRC 16ADF98D
Track not present in AccurateRip database
Copy OK

Track 12

Filename F:\WAV\12 - Return To Splendor.wav

Pre-gap length 0:00:02.18

Peak level 99.5 %
Extraction speed 7.2 X
Track quality 100.0 %
Test CRC 09E6E05E
Copy CRC 09E6E05E
Track not present in AccurateRip database
Copy OK

None of the tracks are present in the AccurateRip database

No errors occurred

End of status report

==== Log checksum 938F1D4B593A2BB767AE635822C395F70D227E42FE0B8701EEBBC199F0AA10F7 ====
REM GENRE Jazz
REM DATE 2012
REM DISCID B10DD60C
REM COMMENT "ExactAudioCopy v1.0b3"
PERFORMER "Randy Klein"
TITLE "What’s Next?"
FILE "01 - Exalted Kingdom.wav" WAVE
TRACK 01 AUDIO
TITLE "Exalted Kingdom"
PERFORMER "Randy Klein"
ISRC USJH31210941
INDEX 01 00:00:00
TRACK 02 AUDIO
TITLE "What's Next?"
PERFORMER "Randy Klein"
ISRC USJH31210942
INDEX 00 04:40:30
FILE "02 - What's Next.wav" WAVE
INDEX 01 00:00:00
FILE "03 - Casa China.wav" WAVE
TRACK 03 AUDIO
TITLE "Casa China"
PERFORMER "Randy Klein"
ISRC USJH31210943
INDEX 01 00:00:00
TRACK 04 AUDIO
TITLE "Dear Charles Mingus"
PERFORMER "Randy Klein"
ISRC USJH31210944
INDEX 00 04:06:68
FILE "04 - Dear Charles Mingus.wav" WAVE
INDEX 01 00:00:00
TRACK 05 AUDIO
TITLE "No"
PERFORMER "Randy Klein"
ISRC USJH31210945
INDEX 00 04:08:38
FILE "05 - No.wav" WAVE
INDEX 01 00:00:00
TRACK 06 AUDIO
TITLE "Lark"
PERFORMER "Randy Klein"
ISRC USJH31210946
INDEX 00 03:44:67
FILE "06 - Lark.wav" WAVE
INDEX 01 00:00:00
TRACK 07 AUDIO
TITLE "Where's My Glasses"
PERFORMER "Randy Klein"
ISRC USJH31210947
INDEX 00 03:18:70
FILE "07 - Where's My Glasses.wav" WAVE
INDEX 01 00:00:00
TRACK 08 AUDIO
TITLE "Tea For Three"
PERFORMER "Randy Klein"
ISRC USJH31210948
INDEX 00 05:55:35
FILE "08 - Tea For Three.wav" WAVE
INDEX 01 00:00:00
FILE "09 - Pere La Chaise.wav" WAVE
TRACK 09 AUDIO
TITLE "Pere La Chaise"
PERFORMER "Randy Klein"
ISRC USJH31210949
INDEX 01 00:00:00
TRACK 10 AUDIO
TITLE "Inner Voice"
PERFORMER "Randy Klein"
ISRC USJH31210950
INDEX 00 04:46:45
FILE "10 - Inner Voice.wav" WAVE
INDEX 01 00:00:00
TRACK 11 AUDIO
TITLE "In The Twilight Hours"
PERFORMER "Randy Klein"
ISRC USJH31210951
INDEX 00 05:02:55
FILE "11 - In The Twilight Hours.wav" WAVE
INDEX 01 00:00:00
TRACK 12 AUDIO
TITLE "Return To Splendor"
PERFORMER "Randy Klein"
ISRC USJH31210952
INDEX 00 06:21:02
FILE "12 - Return To Splendor.wav" WAVE
INDEX 01 00:00:00

Этот торрент недоступен для скачивания без регистрации, однако доступен по публичной magnet-ссылке (источники с публичных трекеров). Перед использованием ссылки прочтите, пожалуйста Пользовательское соглашение, а также как можно дольше оставайтесь на раздаче! Для того, чтобы скачать сам торрент-файл (который видит больше источников), а также для того, чтобы поблагодарить релизера, вам необходимо зарегистрироваться. Если регистрироваться лень - вы можете также попробовать скачать релиз по нашим партнерским ссылкам ниже. Кроме того, зарегистрированным пользователям не показывается всплывающая реклама при скачивании.

[underverse.su].t21472.torrent
Трекер: Зарегистрирован   [ 21.11.2012 13:10 ]  

Статус: проверено (by Бишеп at 21.11.2012 15:19)
Поблагодарили: пока никто не поблагодарил...
Тип торрента: публичный - доступные источники с открытых трекеров: 
Размер: 268 MB (занимает 0,06 DVDR, для записи нужно 1 болванка DVDR/RW)
 
 
Похожие темы
Форум Тема Автор Торрент Отв. Посл. сооб.
Jazz (Lossless) (Hard Bop, Jazz, Funk) Cannonball Adderley - Soul Zodiac (2008) [FLAC (Tracks+.Cue), Lossless] Бишеп
0 | 0

0 | 873

1

14.02.2017 11:56

Jazz (Lossless) (Hard Bop, Big Band) Slide Hampton - Jazz With A Twist & Explosion! (2001) [FLAC (Image+.CUE), Lossless] Бишеп
1 | 0

0 | 717

2

10.05.2017 07:36

Архив (блюз, джаз) (Hard bop, Soul-jazz, Jazz funk, Mainstream jazz, Jazz fusion) Eddie Harris - The Eddie Harris Anthology (1993) [MP3, 320 kbps] M-i-i-i-ke
0 | 0

1 | 6542

6

17.02.2011 14:46

Бишеп Пол:Муж

21-Ноя-2012 13:47

Продолжительность 00:59:03
Производитель диска:Jazzheads, Inc. (JH1197)

Яндекс.Метрика powered by Sphinx


В Н И М А Н И Е
Сайт не распространяет и не хранит электронные версии произведений, а лишь бесплатно и без коммерческой выгоды (не требуя взамен платы,
SMS и т.д.) предоставляет доступ к создаваемому пользователями каталогу ссылок на торрент-файлы, которые содержат только списки хеш-сумм.
Убедительная просьба с жалобами обращаться напрямую к пользователю, разместившему торрент файл.

Вверх