Loading...
Error

(Punk Rock) Сектор Газа - Газовая атака (1996) [FLAC (Image+.CUE), Lossless]

Статистика раздачи
Размер:  368 MB   |    Зарегистрирован:  1 год 2 месяца   |    Скачан:  0 раз
Сидов:  1  |  0 KB/s  ]   Личеров:  0  |  0 KB/s  ]

* - сиды/пиры с внешних источников

   
 
Автор Сообщение

Бишеп Пол:Муж

07-Дек-2012 04:35

Сектор Газа - Газовая атака

Жанр: Punk Rock
Год выпуска:
Источник: CD
Производитель диска: GALA Records - GLCD1049603-45
Аудиокодек: FLAC
Тип рипа: Image+.CUE
Битрейт аудио: lossless
Продолжительность: 00:51:26


Треклист:
01. Аванс
02. Свидание
03. Вылазка
04. 30 лет
05. Life
06. Туман
07. Твой звонок
08. ГАИ (водительская-подхалимская)
09. Мак
10. Чунга-чанга
11. Хата
12. Рассказ, услышанный в автокомбинате
13. Опарыш

Код:

Exact Audio Copy V1.3 from 2. September 2016

EAC extraction logfile from 13. June 2017, 19:57

Сектор Газа / Газовая атака

Used drive  : HL-DT-STDVDRAM GH24NSD1   Adapter: 0  ID: 1

Read mode               : Secure
Utilize accurate stream : Yes
Defeat audio cache      : Yes
Make use of C2 pointers : No

Read offset correction                      : 6
Overread into Lead-In and Lead-Out          : No
Fill up missing offset samples with silence : Yes
Delete leading and trailing silent blocks   : No
Null samples used in CRC calculations       : Yes
Used interface                              : Installed external ASPI interface

Used output format              : User Defined Encoder
Selected bitrate                : 1024 kBit/s
Quality                         : High
Add ID3 tag                     : No
Command line compressor         : D:\Program Files\Exact Audio Copy\Flac\flac.exe
Additional command line options : -V -8 -T "Genre=%genre%" -T "Artist=%artist%" -T "Title=%title%" -T "Album=%albumtitle%" -T "Date=%year%" -T "Tracknumber=%tracknr%" -T "Comment=%comment%" %source%

TOC of the extracted CD

     Track |   Start  |  Length  | Start sector | End sector
    ---------------------------------------------------------
        1  |  0:00.00 |  3:31.42 |         0    |    15866   
        2  |  3:31.42 |  4:01.10 |     15867    |    33951   
        3  |  7:32.52 |  4:24.00 |     33952    |    53751   
        4  | 11:56.52 |  4:10.15 |     53752    |    72516   
        5  | 16:06.67 |  3:25.65 |     72517    |    87956   
        6  | 19:32.57 |  3:43.63 |     87957    |   104744   
        7  | 23:16.45 |  5:06.40 |    104745    |   127734   
        8  | 28:23.10 |  4:07.60 |    127735    |   146319   
        9  | 32:30.70 |  4:42.39 |    146320    |   167508   
       10  | 37:13.34 |  2:52.33 |    167509    |   180441   
       11  | 40:05.67 |  3:34.20 |    180442    |   196511   
       12  | 43:40.12 |  3:54.73 |    196512    |   214134   
       13  | 47:35.10 |  3:50.65 |    214135    |   231449   

Range status and errors

Selected range

     Filename D:\Desktop\Сектор Газа - Газовая атака (1996)\Сектор Газа - Газовая атака.wav

     Peak level 96.9 %
     Extraction speed 7.6 X
     Range quality 100.0 %
     Test CRC 1F0D17A6
     Copy CRC 1F0D17A6
     Copy OK

No errors occurred

 
AccurateRip summary
 
Track  1  accurately ripped (confidence 3)  [A4B7CB3D]  (AR v2)
Track  2  accurately ripped (confidence 3)  [A4B13359]  (AR v2)
Track  3  accurately ripped (confidence 3)  [5DB52B15]  (AR v2)
Track  4  accurately ripped (confidence 3)  [11E562B0]  (AR v2)
Track  5  accurately ripped (confidence 3)  [852545CF]  (AR v2)
Track  6  accurately ripped (confidence 3)  [0E08BF7A]  (AR v2)
Track  7  accurately ripped (confidence 2)  [8DF1B43B]  (AR v2)
Track  8  accurately ripped (confidence 3)  [88C8E221]  (AR v2)
Track  9  accurately ripped (confidence 3)  [23718321]  (AR v2)
Track 10  accurately ripped (confidence 3)  [35CCD94E]  (AR v2)
Track 11  accurately ripped (confidence 3)  [FCA90601]  (AR v2)
Track 12  accurately ripped (confidence 3)  [6680BBB5]  (AR v2)
Track 13  accurately ripped (confidence 3)  [72CD8F7C]  (AR v2)
 
All tracks accurately ripped

End of status report

==== Log checksum 9D613243468EF0351D4300933A6D18109507B37E93F79541450CAC60AFC1E104 ====

Код:

REM GENRE "Punk Rock"
REM DATE 1996
REM DISCID B70C0E0D
REM COMMENT "ExactAudioCopy v1.3"
PERFORMER "Сектор Газа"
TITLE "Газовая атака"
REM COMPOSER ""
FILE "Сектор Газа - Газовая атака.flac" WAVE
  TRACK 01 AUDIO
    TITLE "Аванс"
    PERFORMER "Сектор Газа"
    REM COMPOSER ""
    INDEX 01 00:00:00
  TRACK 02 AUDIO
    TITLE "Свидание"
    PERFORMER "Сектор Газа"
    REM COMPOSER ""
    INDEX 01 03:31:42
  TRACK 03 AUDIO
    TITLE "Вылазка"
    PERFORMER "Сектор Газа"
    REM COMPOSER ""
    INDEX 01 07:32:52
  TRACK 04 AUDIO
    TITLE "30 лет"
    PERFORMER "Сектор Газа"
    REM COMPOSER ""
    INDEX 01 11:56:52
  TRACK 05 AUDIO
    TITLE "Life"
    PERFORMER "Сектор Газа"
    REM COMPOSER ""
    INDEX 00 16:06:66
    INDEX 01 16:06:67
  TRACK 06 AUDIO
    TITLE "Туман"
    PERFORMER "Сектор Газа"
    REM COMPOSER ""
    INDEX 01 19:32:57
  TRACK 07 AUDIO
    TITLE "Твой звонок"
    PERFORMER "Сектор Газа"
    REM COMPOSER ""
    INDEX 01 23:16:45
  TRACK 08 AUDIO
    TITLE "ГАИ (водительская-подхалимская)"
    PERFORMER "Сектор Газа"
    REM COMPOSER ""
    INDEX 01 28:23:10
  TRACK 09 AUDIO
    TITLE "Мак"
    PERFORMER "Сектор Газа"
    REM COMPOSER ""
    INDEX 01 32:30:70
  TRACK 10 AUDIO
    TITLE "Чунга-чанга"
    PERFORMER "Сектор Газа"
    REM COMPOSER ""
    INDEX 01 37:13:34
  TRACK 11 AUDIO
    TITLE "Хата"
    PERFORMER "Сектор Газа"
    REM COMPOSER ""
    INDEX 01 40:05:67
  TRACK 12 AUDIO
    TITLE "Рассказ, услышанный в автокомбинате"
    PERFORMER "Сектор Газа"
    REM COMPOSER ""
    INDEX 01 43:40:12
  TRACK 13 AUDIO
    TITLE "Опарыш"
    PERFORMER "Сектор Газа"
    REM COMPOSER ""
    INDEX 01 47:35:10

Этот торрент недоступен для скачивания без регистрации, однако доступен по публичной magnet-ссылке (источники с публичных трекеров). Перед использованием ссылки прочтите, пожалуйста Пользовательское соглашение, а также как можно дольше оставайтесь на раздаче! Для того, чтобы скачать сам торрент-файл (который видит больше источников), а также для того, чтобы поблагодарить релизера, вам необходимо зарегистрироваться. Если регистрироваться лень - вы можете также попробовать скачать релиз по нашим партнерским ссылкам ниже. Кроме того, зарегистрированным пользователям не показывается всплывающая реклама при скачивании.

[underverse.me].t85005.torrent
Трекер: Зарегистрирован   [ 26.06.2017 06:14 ]  

Статус: проверено (by Бишеп at 26.06.2017 06:15)
Поблагодарили: пока никто не поблагодарил...
Тип торрента: публичный - доступные источники с открытых трекеров: 
Размер: 368 MB (занимает 0,08 DVDR, для записи нужно 1 болванка DVDR/RW)
 
 
Похожие темы
Форум Тема Автор Торрент Отв. Посл. сооб.
Зарубежный Punk, Hardcore, Grunge, Alternative (Punk Rock/Street Punk) BRDigung - In Goldenen Ketten (2014) [MP3, 320 kbps] Jimmy
1 | 0

0 | 1124

4

23.04.2014 16:00

Зарубежный Punk, Hardcore, Grunge, Alternative (Punk Rock/Heavy Punk) Desakato - Buen Viaje (2014) [MP3, 320 kbps] Jimmy
1 | 0

0 | 836

5

23.04.2014 15:53

Зарубежный Punk, Hardcore, Grunge, Alternative (Punk Rock) Richie Ramone - Entitled [ex-Ramones] (2013) [MP3, 320 kbps] Jimmy
1 | 0

0 | 2112

2

21.12.2013 08:03

Зарубежный Punk, Hardcore, Grunge, Alternative (Punk Rock/Old School Pop Punk) The Bugs - 2 альбома (The Bugs/Missile To The Middle East) (2008/2013) [MP3, 320 kbps] Jimmy
1 | 0

0 | 2180

0

21.12.2013 08:06

Зарубежный Punk, Hardcore, Grunge, Alternative (Punk Rock) The So So Glos - Blowout (2013) [MP3, 320 kbps] Jimmy
1 | 0

0 | 1873

1

04.01.2014 10:17

Зарубежный Punk, Hardcore, Grunge, Alternative (Punk Rock | Melodic Hardcore) Noopinion - No Chains For Change (2013) [MP3, 320 kbps] Jimmy
0 | 0

0 | 1820

2

04.01.2014 14:20

Зарубежный Punk, Hardcore, Grunge, Alternative (Punk Rock) Stiff Little Fingers - No Going Back (2014) [MP3, 320 kbps] Jimmy
1 | 6

0 | 1805

5

23.03.2014 05:20

Зарубежный Punk, Hardcore, Grunge, Alternative (Punk Rock, Skate Punk, Melodic Punk) Authority Zero - Broadcasting To The Nations (2017) [MP3, 320 kbps CBR] Darkferse
2 | 0

0 | 899

2

02.06.2017 15:14

Зарубежный Punk, Hardcore, Grunge, Alternative (Punk Rock, Reggae) Anti-Nowhere League - League Style (Loosen Up Volume 1) (2017) [MP3, 320 kbps CBR] Darkferse
1 | 1

0 | 502

1

05.06.2017 23:58

Зарубежный Punk, Hardcore, Grunge, Alternative (Punk Rock) Beatsteaks - YOURS (2017) [MP3, 320 kbps CBR] Darkferse
1 | 0

0 | 571

1

06.09.2017 10:18



Последний раз редактировалось: Бишеп (26.06.2017 06:14), всего редактировалось 2 раз(а)

Grigor.V Пол:Муж

22-Июн-2014 21:34

:)

Яндекс.Метрика powered by Sphinx


В Н И М А Н И Е
Сайт не распространяет и не хранит электронные версии произведений, а лишь бесплатно и без коммерческой выгоды (не требуя взамен платы,
SMS и т.д.) предоставляет доступ к создаваемому пользователями каталогу ссылок на торрент-файлы, которые содержат только списки хеш-сумм.
Убедительная просьба с жалобами обращаться напрямую к пользователю, разместившему торрент файл.

Вверх