Loading...
Error

Теория Большого Взрыва / The Big Bang Theory / Сезон: 6 / Серии: 1-24 (24) (Марк Сендроуски) [2012 г., комедия, WEBDLRip 1080p] AVO + Original

Статистика раздачи
Размер:  20,27 GB   |    Зарегистрирован:  5 лет 7 месяцев   |    Скачан:  43 раза

Полного источника не было: 4 месяца 17 дней

Сидов:  0  |  0 KB/s  ]   Личеров:  0  |  0 KB/s  ]

* - сиды/пиры с внешних источников

   
 
Автор Сообщение

Jimmy Пол:Муж

20-Дек-2012 08:55

Теория Большого Взрыва / The Big Bang Theory / Сезон: 6

Год выпуска: 2012
Жанр: комедия
Страна: США
Режиссер: Марк Сендроуски
В ролях: Джонни Галекки, Джим Парсонс, Кейли Куоко, Саймон Хельберг, Кунал Найяр и др.
Сюжет фильма:
Два блестящих физика, Леонард и Шелдон, «великие умы», которые понимают, как «работает вселенная». Но их гениальность ничуть не помогает им общаться с людьми, особенно с женщинами. Всё начинает меняться, когда напротив них поселяется красавица Пенни.
Когда Леонард и Шелдон встречают Пенни, Леонард сразу же начинает интересоваться ею. Он видит в общении с Пенни огромную перспективу…, вплоть до любви, однако Шелдон понимает, что мечтам его друга не суждено сбыться.
Стоит также отметить пару странных друзей этих физиков: Воловец, который любит употреблять фразы на разных языках, включая русский, и Раджеш Кутрапали, теряющий дар речи при виде женщин.

Качество видео: WEBDLRip 1080p
Продолжительность: ~00:20:55
Формат: mkv
Видео: MPEG-4 AVC (H.264), 1920x1080, 5075 kbps
Аудио #1: русский, одноголосый закадровый [Кураж-Бамбей], AC3 5.1, 384 kbps
Аудио #2: английский, оригинал, AC3 5.1, 384 kbps
Субтитры #1: вшитые отключаемые, S_TEXT/UTF8, русский
Субтитры #2: вшитые отключаемые, S_TEXT/UTF8, английский

Код:

General
Complete name                    : F:\Видео\Сериалы\The.Big.Bang.Theory.S06.1080p.WEB-DL.Rus.Eng.HDCLUB\The.Big.Bang.Theory.S06E04.1080p.WEB-DL.Rus.Eng.HDCLUB.mkv
Format                           : Matroska
File size                        : 893 MiB
Duration                         : 20mn 55s
Overall bit rate                 : 5 962 Kbps
Movie name                       : The Big Bang Theory [Season 6] (2012) - Release for HDCLUB
Encoded date                     : UTC 2012-10-22 18:05:38
Writing application              : mkvmerge v5.8.0 ('No Sleep / Pillow') built on Sep  2 2012 15:37:04
Writing library                  : libebml v1.2.3 + libmatroska v1.3.0

Video
ID                               : 1
Format                           : AVC
Format/Info                      : Advanced Video Codec
Format profile                   : High@L4.0
Format settings, CABAC           : Yes
Format settings, ReFrames        : 4 frames
Codec ID                         : V_MPEG4/ISO/AVC
Duration                         : 20mn 54s
Bit rate                         : 5 076 Kbps
Width                            : 1 920 pixels
Height                           : 1 080 pixels
Display aspect ratio             : 16/9
Frame rate                       : 23.976 fps
Resolution                       : 24 bits
Colorimetry                      : 4:2:0
Scan type                        : Progressive
Bits/(Pixel*Frame)               : 0.102
Stream size                      : 759 MiB (85%)
Title                            : The Big Bang Theory 6x04: The Re-Entry Minimization - Release for HDCLUB

Audio #1
ID                               : 2
Format                           : AC-3
Format/Info                      : Audio Coding 3
Codec ID                         : A_AC3
Duration                         : 20mn 55s
Bit rate mode                    : Constant
Bit rate                         : 384 Kbps
Channel(s)                       : 6 channels
Channel positions                : Front: L C R, Surround: L R, LFE
Sampling rate                    : 48.0 KHz
Stream size                      : 57.5 MiB (6%)
Language                         : Russian

Audio #2
ID                               : 3
Format                           : AC-3
Format/Info                      : Audio Coding 3
Codec ID                         : A_AC3
Duration                         : 20mn 55s
Bit rate mode                    : Constant
Bit rate                         : 384 Kbps
Channel(s)                       : 6 channels
Channel positions                : Front: L C R, Surround: L R, LFE
Sampling rate                    : 48.0 KHz
Stream size                      : 57.5 MiB (6%)
Title                            : English Audio

Text #1
ID                               : 4
Format                           : UTF-8
Codec ID                         : S_TEXT/UTF8
Codec ID/Info                    : UTF-8 Plain Text
Language                         : Russian

Text #2
ID                               : 5
Format                           : UTF-8
Codec ID                         : S_TEXT/UTF8
Codec ID/Info                    : UTF-8 Plain Text

Семпл: http://multi-up.com/772270

pic pic pic
Для увеличения картинки щелкните мышкой по превью

Этот торрент недоступен для скачивания без регистрации, однако доступен по публичной magnet-ссылке (источники с публичных трекеров). Перед использованием ссылки прочтите, пожалуйста Пользовательское соглашение, а также как можно дольше оставайтесь на раздаче! Для того, чтобы скачать сам торрент-файл (который видит больше источников), а также для того, чтобы поблагодарить релизера, вам необходимо зарегистрироваться. Если регистрироваться лень - вы можете также попробовать скачать релиз по нашим партнерским ссылкам ниже. Кроме того, зарегистрированным пользователям не показывается всплывающая реклама при скачивании.

[underverse.su].t22576.torrent
Трекер: Зарегистрирован   [ 25.05.2013 05:12 ]  

Статус: проверено (by Jimmy at 25.05.2013 05:12)
Поблагодарили: 13 человек
Тип торрента: публичный - доступные источники с открытых трекеров: 
Размер: 20,27 GB (занимает 4,63 DVDR, для записи нужно 5 болванок DVDR/RW)
 
 
Похожие темы
Форум Тема Автор Торрент Отв. Посл. сооб.
Зарубежные сериалы Теория большого взрыва / The Big Bang Theory / Весь 1 сезон (17 серий) (Марк Цендровски) [2007 г., комедия, HDTVRip] boz1i
9 | 0

1 | 4199

56

31.05.2011 18:02

Зарубежные сериалы Теория большого взрыва / The Big Bang Theory / Сезоны 1-8 (1-183 серии из 183) (Марк Сендроуски, Энтони Джозеф Рич, Питер Чакос) [2007-2015 г., комедия, HDTVRip] VO older
1 | 0

0 | 1416

17

11.09.2015 14:23

T Зарубежные сериалы Теория большого взрыва / The big bang theory / Сезон 9 (1-10 серии из 24) (Марк Сендроуски, Энтони Джозеф Рич, Питер Чакос) [2015 г., комедия, HDTVRip] VO + Original older
182 | 28

7 | 3025

26

16.12.2015 04:47

* Архив (Сериалы) Теория большого взрыва / The Big Bang Theory /Весь 2 сезон (Марк Цендровски) [2008 -2009 г., комедия, HDTVRip] boz1i

8 | 2653

19.03.2011 16:29

Архив (Сериалы) Теория Большого Взрыва / The Big Bang Theory / Сезон 5 Серии 1-24 (24) (Марк Сендроуски) [2011-2012 г., комедия, HDTVRip] Кураж-Бамбей Jimmy
0 | 0

1 | 1326

22

31.01.2018 16:56

Архив (Сериалы) Теория Большого Взрыва / The Big Bang Theory / Сезон: 6 / Серии: 1-5 (24) (Марк Сендроуски) [2012 г., комедия, WEBDLRip] AVO + Original Jimmy
0 | 0

3 | 1992

12

19.03.2013 14:01

T Архив (Сериалы) Теория Большого Взрыва / The Big Bang Theory / Сезон: 7 / Серии: 01-13 (Марк Сендроуски) [2013-2014 г., ситком, HDTVRip] VO (Кураж-Бамбей) + Original garry
0 | 0

5 | 2800

31

31.01.2018 16:58



Последний раз редактировалось: Jimmy (25.05.2013 05:11), всего редактировалось 8 раз(а)

МИТЯ Пол:Муж

02-Фев-2013 10:30

а есть серии посвежее?

Jimmy Пол:Муж

03-Фев-2013 06:09

МИТЯ писал(а):

а есть серии посвежее?
да, в ближайшее время обновлю раздачу!

Jimmy Пол:Муж

12-Фев-2013 17:17

Раздача обновлена! Добавлены 12-15 серии!

Jimmy Пол:Муж

06-Мар-2013 17:21

Раздача обновлена! Добавлены 16 и 17 серии!

Jimmy Пол:Муж

13-Мар-2013 14:53

Раздача обновлена! Добавлена 18 серия!

mr.Tos Пол:Муж

14-Мар-2013 00:25

простите ))))??? а раздаваться... скорость бывает вообще??? )))

МИТЯ Пол:Муж

14-Мар-2013 08:15

я скачал без проблем. может у вас отключены нужные настройки и включен https

Чертёнок Пол:Муж

14-Мар-2013 21:14

Качество видео: WEBDLRip ???

Jimmy Пол:Муж

19-Мар-2013 13:54

Раздача обновлена! Добавлена 19 серия!

Jimmy Пол:Муж

09-Апр-2013 16:36

Раздача обновлена! Добавлена 20 серия!

Jimmy Пол:Муж

25-Май-2013 05:12

Раздача обновлена! Теперь полный сезон! Приятного просмотра!

yejik123 

06-Янв-2014 18:10

Добавьте пожалуйта седьмой сезон в переводе кураж бомбей там только что 12 серия вышла. Очень хочу скачать так не могу посмотреть онлайн

Яндекс.Метрика powered by Sphinx


В Н И М А Н И Е
Сайт не распространяет и не хранит электронные версии произведений, а лишь бесплатно и без коммерческой выгоды (не требуя взамен платы,
SMS и т.д.) предоставляет доступ к создаваемому пользователями каталогу ссылок на торрент-файлы, которые содержат только списки хеш-сумм.
Убедительная просьба с жалобами обращаться напрямую к пользователю, разместившему торрент файл.

Вверх