Loading...
Error

(Punk Rock) Сектор Газа - Зловещие мертвецы (1994) [FLAC (Image+.CUE), Lossless]

Статистика раздачи
Размер:  308 MB   |    Зарегистрирован:  1 год 4 месяца   |    Скачан:  0 раз
Сидов:  1  |  0 KB/s  ]   Личеров:  0  |  0 KB/s  ]

* - сиды/пиры с внешних источников

   
 
Автор Сообщение

Бишеп Пол:Муж

08-Янв-2013 10:41

Сектор Газа - Зловещие мертвецы

Жанр: Punk Rock
Год выпуска: 1994
Источник: CD
Производитель диска: S.B.A. Records, Inc. - GLCD 05948
Аудиокодек: FLAC
Тип рипа: Image+.CUE
Битрейт аудио: lossless
Продолжительность: 00:43:34


Треклист:
01. Ой, ты, травушка зелёная
02. Сифон
03. Ку-ку
04. Русский мат
05. Без вина
06. Голубой
07. Страх
08. Нас ждут из темноты
09. Вампиры
10. Моя смерть
11. Когда помрёшь
12. Чёрная магия

Код:

Exact Audio Copy V1.3 from 2. September 2016

EAC extraction logfile from 7. April 2017, 23:39

Сектор Газа / Зловещие мертвецы

Used drive  : TSSTcorpCDDVDW SH-224DB   Adapter: 0  ID: 1

Read mode               : Secure
Utilize accurate stream : Yes
Defeat audio cache      : Yes
Make use of C2 pointers : No

Read offset correction                      : 6
Overread into Lead-In and Lead-Out          : No
Fill up missing offset samples with silence : Yes
Delete leading and trailing silent blocks   : No
Null samples used in CRC calculations       : Yes
Used interface                              : Installed external ASPI interface

Used output format              : User Defined Encoder
Selected bitrate                : 1024 kBit/s
Quality                         : High
Add ID3 tag                     : No
Command line compressor         : D:\Program Files\Exact Audio Copy\Flac\flac.exe
Additional command line options : -V -8 -T "Genre=%genre%" -T "Artist=%artist%" -T "Title=%title%" -T "Album=%albumtitle%" -T "Date=%year%" -T "Tracknumber=%tracknr%" -T "Comment=%comment%" %source%

TOC of the extracted CD

     Track |   Start  |  Length  | Start sector | End sector
    ---------------------------------------------------------
        1  |  0:00.25 |  6:04.52 |        25    |    27376   
        2  |  6:05.02 |  3:30.38 |     27377    |    43164   
        3  |  9:35.40 |  1:45.47 |     43165    |    51086   
        4  | 11:21.12 |  2:27.35 |     51087    |    62146   
        5  | 13:48.47 |  3:35.25 |     62147    |    78296   
        6  | 17:23.72 |  2:54.23 |     78297    |    91369   
        7  | 20:18.20 |  3:04.47 |     91370    |   105216   
        8  | 23:22.67 |  4:00.05 |    105217    |   123221   
        9  | 27:22.72 |  4:55.15 |    123222    |   145361   
       10  | 32:18.12 |  3:56.28 |    145362    |   163089   
       11  | 36:14.40 |  3:38.57 |    163090    |   179496   
       12  | 39:53.22 |  3:41.08 |    179497    |   196079   

Range status and errors

Selected range

     Filename D:\Desktop\Сектор Газа - Зловещие мертвецы (1994)\Сектор Газа - Зловещие мертвецы.wav

     Peak level 100.0 %
     Extraction speed 2.4 X
     Range quality 100.0 %
     Test CRC 3B1F37FA
     Copy CRC 3B1F37FA
     Copy OK

No errors occurred

 
AccurateRip summary
 
Track  1  accurately ripped (confidence 7)  [4932C1FB]  (AR v2)
Track  2  accurately ripped (confidence 7)  [92EC23B0]  (AR v2)
Track  3  accurately ripped (confidence 7)  [5A0CF24B]  (AR v2)
Track  4  accurately ripped (confidence 7)  [3A8646E6]  (AR v2)
Track  5  accurately ripped (confidence 7)  [5E6E7BE2]  (AR v2)
Track  6  accurately ripped (confidence 7)  [300D5D49]  (AR v2)
Track  7  accurately ripped (confidence 7)  [93CDF5C9]  (AR v2)
Track  8  accurately ripped (confidence 7)  [EE088181]  (AR v2)
Track  9  accurately ripped (confidence 7)  [797B04CB]  (AR v2)
Track 10  accurately ripped (confidence 7)  [E398D759]  (AR v2)
Track 11  accurately ripped (confidence 7)  [4EDB8ABE]  (AR v2)
Track 12  accurately ripped (confidence 7)  [C3E58C06]  (AR v2)
 
All tracks accurately ripped

End of status report

==== Log checksum E7E1EBB849EB7EA94CF076F65553D697055D901043B943FDC2C9615D39907A49 ====

Код:

REM GENRE "Punk Rock"
REM DATE 1994
REM DISCID 990A360C
REM COMMENT "ExactAudioCopy v1.3"
PERFORMER "Сектор Газа"
TITLE "Зловещие мертвецы"
REM COMPOSER ""
FILE "Сектор Газа - Зловещие мертвецы.flac" WAVE
  TRACK 01 AUDIO
    TITLE "Ой, ты, травушка зелёная"
    PERFORMER "Сектор Газа"
    REM COMPOSER ""
    INDEX 00 00:00:00
    INDEX 01 00:00:25
  TRACK 02 AUDIO
    TITLE "Сифон"
    PERFORMER "Сектор Газа"
    REM COMPOSER ""
    INDEX 00 06:04:08
    INDEX 01 06:05:02
  TRACK 03 AUDIO
    TITLE "Ку-Ку"
    PERFORMER "Сектор Газа"
    REM COMPOSER ""
    INDEX 00 09:34:25
    INDEX 01 09:35:40
  TRACK 04 AUDIO
    TITLE "Русский мат"
    PERFORMER "Сектор Газа"
    REM COMPOSER ""
    INDEX 00 11:20:05
    INDEX 01 11:21:12
  TRACK 05 AUDIO
    TITLE "Без вина"
    PERFORMER "Сектор Газа"
    REM COMPOSER ""
    INDEX 00 13:47:23
    INDEX 01 13:48:47
  TRACK 06 AUDIO
    TITLE "Голубой"
    PERFORMER "Сектор Газа"
    REM COMPOSER ""
    INDEX 00 17:22:73
    INDEX 01 17:23:72
  TRACK 07 AUDIO
    TITLE "Страх"
    PERFORMER "Сектор Газа"
    REM COMPOSER ""
    INDEX 00 20:16:63
    INDEX 01 20:18:20
  TRACK 08 AUDIO
    TITLE "Нас ждут из темноты"
    PERFORMER "Сектор Газа"
    REM COMPOSER ""
    INDEX 00 23:22:60
    INDEX 01 23:22:67
  TRACK 09 AUDIO
    TITLE "Вампиры"
    PERFORMER "Сектор Газа"
    REM COMPOSER ""
    INDEX 00 27:21:70
    INDEX 01 27:22:72
  TRACK 10 AUDIO
    TITLE "Моя смерть"
    PERFORMER "Сектор Газа"
    REM COMPOSER ""
    INDEX 00 32:17:00
    INDEX 01 32:18:12
  TRACK 11 AUDIO
    TITLE "Когда помрёшь"
    PERFORMER "Сектор Газа"
    REM COMPOSER ""
    INDEX 00 36:13:08
    INDEX 01 36:14:40
  TRACK 12 AUDIO
    TITLE "Чёрная магия"
    PERFORMER "Сектор Газа"
    REM COMPOSER ""
    INDEX 00 39:51:65
    INDEX 01 39:53:22

Этот торрент недоступен для скачивания без регистрации, однако доступен по публичной magnet-ссылке (источники с публичных трекеров). Перед использованием ссылки прочтите, пожалуйста Пользовательское соглашение, а также как можно дольше оставайтесь на раздаче! Для того, чтобы скачать сам торрент-файл (который видит больше источников), а также для того, чтобы поблагодарить релизера, вам необходимо зарегистрироваться. Если регистрироваться лень - вы можете также попробовать скачать релиз по нашим партнерским ссылкам ниже. Кроме того, зарегистрированным пользователям не показывается всплывающая реклама при скачивании.

[underverse.me].t81735.torrent
Трекер: Зарегистрирован   [ 26.04.2017 06:33 ]  

Статус: проверено (by Бишеп at 26.04.2017 06:35)
Поблагодарили: пока никто не поблагодарил...
Тип торрента: публичный - доступные источники с открытых трекеров: 
Размер: 308 MB (занимает 0,07 DVDR, для записи нужно 1 болванка DVDR/RW)
 
 
Похожие темы
Форум Тема Автор Торрент Отв. Посл. сооб.
Зарубежный Punk, Hardcore, Grunge, Alternative (Punk Rock/Street Punk) BRDigung - In Goldenen Ketten (2014) [MP3, 320 kbps] Jimmy
1 | 0

0 | 1124

4

23.04.2014 16:00

Зарубежный Punk, Hardcore, Grunge, Alternative (Punk Rock/Heavy Punk) Desakato - Buen Viaje (2014) [MP3, 320 kbps] Jimmy
1 | 0

0 | 836

5

23.04.2014 15:53

Зарубежный Punk, Hardcore, Grunge, Alternative (Punk Rock) Richie Ramone - Entitled [ex-Ramones] (2013) [MP3, 320 kbps] Jimmy
1 | 0

0 | 2112

2

21.12.2013 08:03

Зарубежный Punk, Hardcore, Grunge, Alternative (Punk Rock/Old School Pop Punk) The Bugs - 2 альбома (The Bugs/Missile To The Middle East) (2008/2013) [MP3, 320 kbps] Jimmy
1 | 0

0 | 2180

0

21.12.2013 08:06

Зарубежный Punk, Hardcore, Grunge, Alternative (Punk Rock) The So So Glos - Blowout (2013) [MP3, 320 kbps] Jimmy
1 | 0

0 | 1873

1

04.01.2014 10:17

Зарубежный Punk, Hardcore, Grunge, Alternative (Punk Rock | Melodic Hardcore) Noopinion - No Chains For Change (2013) [MP3, 320 kbps] Jimmy
0 | 0

0 | 1820

2

04.01.2014 14:20

Зарубежный Punk, Hardcore, Grunge, Alternative (Punk Rock) Stiff Little Fingers - No Going Back (2014) [MP3, 320 kbps] Jimmy
1 | 6

0 | 1805

5

23.03.2014 05:20

Зарубежный Punk, Hardcore, Grunge, Alternative (Punk Rock, Skate Punk, Melodic Punk) Authority Zero - Broadcasting To The Nations (2017) [MP3, 320 kbps CBR] Darkferse
2 | 0

0 | 899

2

02.06.2017 15:14

Зарубежный Punk, Hardcore, Grunge, Alternative (Punk Rock, Reggae) Anti-Nowhere League - League Style (Loosen Up Volume 1) (2017) [MP3, 320 kbps CBR] Darkferse
1 | 1

0 | 502

1

05.06.2017 23:58

Зарубежный Punk, Hardcore, Grunge, Alternative (Punk Rock) Beatsteaks - YOURS (2017) [MP3, 320 kbps CBR] Darkferse
1 | 0

0 | 571

1

06.09.2017 10:18



Последний раз редактировалось: Бишеп (26.04.2017 06:33), всего редактировалось 2 раз(а)

Grigor.V Пол:Муж

22-Июн-2014 21:35

:good:

Яндекс.Метрика powered by Sphinx


В Н И М А Н И Е
Сайт не распространяет и не хранит электронные версии произведений, а лишь бесплатно и без коммерческой выгоды (не требуя взамен платы,
SMS и т.д.) предоставляет доступ к создаваемому пользователями каталогу ссылок на торрент-файлы, которые содержат только списки хеш-сумм.
Убедительная просьба с жалобами обращаться напрямую к пользователю, разместившему торрент файл.

Вверх