Loading...
Error

Хэйвен / Haven / Сезон 3: Серии 1-13 (13) (Адам Кэйн) [2012 г., Мистика, драма, WEB-DL 720p] MVO

Статистика раздачи
Размер:  18,88 GB   |    Зарегистрирован:  5 лет 10 месяцев   |    Скачан:  8 раз

Полного источника не было: 2 года 6 месяцев

Сидов:  0  |  0 KB/s  ]   Личеров:  0  |  0 KB/s  ]

* - сиды/пиры с внешних источников

   
 
Автор Сообщение

Чертёнок Пол:Муж

09-Янв-2013 21:17

Хэйвен / Haven


Год выпуска: 2012
Жанр: Мистика, драма
Страна: США
Режиссер: Адам Кэйн
В ролях: Эмили Роуз, Эрик Бальфур, Лукас Брайант, Ричард Донат, Джон Дансуорт
Сюжет фильма:
В маленький город Хэйвен приезжает агент ФБР Одри Паркер, чтобы расследовать смерть бывшего преступника. Из-за своего природного любопытства она попала в эпицентр этого необычного анклава, который, оказывается, издавна служил пристанищем для людей со сверхспособностями. Среди местных жителей города полицейский Нейтан Уорнос, который стал напарником Одри, и загадочный и обаятельный мастер на все руки Дюк Крокер.

Качество видео: WEBDLRip 720p

Продолжительность: 13 x ~ 00:43:00
Формат: MKV
Видео: MPEG-4 AVC, 1280x720, 4011 kbps
Аудио: 1Русский, многоголосый закадровый [профессиональный](BaibaKo), AC3 5.1, 384kbps
Аудио: 2Английский, AC3 5.1, 384kbps

Код:

General
Unique ID : 196622897639607322741114232473512155853 (0x93EC31504E79A502B8E1DA87F6359ACD)
Complete name : D:РАЗДАЧИ (Запас)Хэйвен s03 720p WEB-DL (BaibaKo)Haven.s03e01.HD720p.WEB-DL.Rus.Eng.BaibaKo.tv.mkv
Format : Matroska
File size : 1.46 GiB
Duration : 42mn 39s
Overall bit rate : 4 917 Kbps
Movie name : BaibaKo.tv presents - Хэйвен 3х01 301
Encoded date : UTC 2012-09-26 05:36:53
Writing application : mkvmerge v5.2.1 ('A Far Off Place') built on Jan 2 2012 23:21:10
Writing library : libebml v1.2.3 + libmatroska v1.3.0

Video
ID : 1
Format : AVC
Format/Info : Advanced Video Codec
Format profile : High@L3.1
Format settings, CABAC : No
Format settings, ReFrames : 2 frames
Codec ID : V_MPEG4/ISO/AVC
Duration : 42mn 39s
Bit rate : 4 051 Kbps
Width : 1 280 pixels
Height : 720 pixels
Display aspect ratio : 16:9
Frame rate : 23.976 fps
Color space : YUV
Chroma subsampling : 4:2:0
Bit depth : 8 bits
Scan type : Progressive
Bits/(Pixel*Frame) : 0.183
Stream size : 1.21 GiB (82%)
Language : English
Color primaries : BT.709-5, BT.1361, IEC 61966-2-4, SMPTE RP177
Transfer characteristics : BT.709-5, BT.1361
Matrix coefficients : BT.709-5, BT.1361, IEC 61966-2-4 709, SMPTE RP177

Audio #1
ID : 2
Format : AC-3
Format/Info : Audio Coding 3
Mode extension : CM (complete main)
Codec ID : A_AC3
Duration : 42mn 39s
Bit rate mode : Constant
Bit rate : 384 Kbps
Channel(s) : 6 channels
Channel positions : Front: L C R, Side: L R, LFE
Sampling rate : 48.0 KHz
Bit depth : 16 bits
Compression mode : Lossy
Stream size : 117 MiB (8%)
Title : Rus BaibaKo.tv DD5.1
Language : Russian

Audio #2
ID : 3
Format : AC-3
Format/Info : Audio Coding 3
Mode extension : CM (complete main)
Codec ID : A_AC3
Duration : 42mn 39s
Bit rate mode : Constant
Bit rate : 384 Kbps
Channel(s) : 6 channels
Channel positions : Front: L C R, Side: L R, LFE
Sampling rate : 48.0 KHz
Bit depth : 16 bits
Compression mode : Lossy
Stream size : 117 MiB (8%)
Title : Eng DD5.1
Language : English
Релиз группы:




Этот торрент недоступен для скачивания без регистрации, однако доступен по публичной magnet-ссылке (источники с публичных трекеров). Перед использованием ссылки прочтите, пожалуйста Пользовательское соглашение, а также как можно дольше оставайтесь на раздаче! Для того, чтобы скачать сам торрент-файл (который видит больше источников), а также для того, чтобы поблагодарить релизера, вам необходимо зарегистрироваться. Если регистрироваться лень - вы можете также попробовать скачать релиз по нашим партнерским ссылкам ниже. Кроме того, зарегистрированным пользователям не показывается всплывающая реклама при скачивании.

[underverse.su].t23156.torrent
Трекер: Зарегистрирован   [ 09.01.2013 21:17 ]  

Статус: проверено (by Чертёнок at 09.01.2013 21:21)
Поблагодарили: пока никто не поблагодарил...
Тип торрента: публичный - доступные источники с открытых трекеров: 
Размер: 18,88 GB (занимает 4,31 DVDR, для записи нужно 5 болванок DVDR/RW)
 
 
Похожие темы
Форум Тема Автор Торрент Отв. Посл. сооб.
Зарубежные сериалы [BD / Remux / BDRip / WEB-DL / HDTV 1080/720р] Хэйвен / Haven / Сезон: 1 / Серии: 1-13 из 13 (Шон Пиллер, Т.У. Пикок, Ли Роуз) [2010, мистика, драма, детектив, BDRemux 1080p] DVO (Кубик в Кубе) + MVO (SyFy Universal) + MVO (ТВ3) + Original (Eng)... uzi2009
3 | 0

0 | 2070

2

13.08.2014 09:31



Последний раз редактировалось: Чертёнок (09.01.2013 21:58), всего редактировалось 1 раз

Чертёнок Пол:Муж

09-Янв-2013 21:32

:good:

Яндекс.Метрика powered by Sphinx


В Н И М А Н И Е
Сайт не распространяет и не хранит электронные версии произведений, а лишь бесплатно и без коммерческой выгоды (не требуя взамен платы,
SMS и т.д.) предоставляет доступ к создаваемому пользователями каталогу ссылок на торрент-файлы, которые содержат только списки хеш-сумм.
Убедительная просьба с жалобами обращаться напрямую к пользователю, разместившему торрент файл.

Вверх