Loading...
Error

Карточный домик / House of Cards / Сезон 1 / Серии 1-13 (13) ( Джеймс Фоули, Дэвид Финчер, Карл Франклин) [2013 г., Драма, WEBDLRip 720p] MVO + Original

Статистика раздачи
Размер:  18,1 GB   |    Зарегистрирован:  5 лет 10 месяцев   |    Скачан:  74 раза

Полного источника не было: 9 часов

Сидов:  0  |  0 KB/s  ]   Личеров:  0  |  0 KB/s  ]

* - сиды/пиры с внешних источников

   
 
Автор Сообщение

Чертёнок Пол:Муж

01-Мар-2013 15:27

Карточный домик / House of Cards


Год выпуска: 2013
Жанр: Драма
Страна: США
Режиссер: Джеймс Фоули, Дэвид Финчер, Карл Франклин
В ролях: Кевин Спейси, Робин Райт, Кейт Мара, Кори Столл, Майкл Келли, Сакина Джэффри, Ларри Пайн, Джейн Эткинсон, Кевин Килнер, Жаклин Джонс, Рюэл Пендлтон, Гилберт Сото, Кристен Коннолли, Сандрин Холт, Махершалалхашбаз Али, Майкл Гилл, Рэйчел Броснахэн, Бен Дэниелс, Тони Сайпресс, Констанс Зиммер
Сюжет фильма:
Безжалостный конгрессмен, Фрэнсис Андервуд, и его амбициозная жена Клэр, не остановятся ни перед чем, чтобы завоевать все. Эта жестокая политическая драма пропитанная жадностью, сексом, любовью и коррупцией.

Качество видео: WEBDLRip 720p

Продолжительность: 13 x ~ 00:51:00
Формат: MKV
Видео: MPEG-4 AVC, 1280x720, 3650kbps
Аудио #1: русский, многоголосый закадровый [профессиональный] [Первый канал], AC3 2.0, 192kbps
Аудио #2: английский, оригинал, AC3 2.0, 192kbps

Код:

Duration                         : 56mn 6s
Overall bit rate                 : 4 116 Kbps
Encoded date                     : UTC 2013-02-04 22:23:59
Writing application              : mkvmerge v5.0.0 ('Die Wahre Liebe') built on Sep 25 2011 20:33:49
Writing library                  : libebml v1.2.2 + libmatroska v1.3.0

Video
ID                               : 1
Format                           : AVC
Format/Info                      : Advanced Video Codec
Format profile                   : Baseline@L3.1
Format settings, CABAC           : No
Format settings, ReFrames        : 1 frame
Codec ID                         : V_MPEG4/ISO/AVC
Duration                         : 56mn 6s
Bit rate                         : 3 650 Kbps
Width                            : 1 280 pixels
Height                           : 720 pixels
Display aspect ratio             : 16:9
Frame rate mode                  : Variable
Frame rate                       : 29.970 fps
Color space                      : YUV
Chroma subsampling               : 4:2:0
Bit depth                        : 8 bits
Scan type                        : Progressive
Bits/(Pixel*Frame)               : 0.132
Stream size                      : 1.43 GiB (89%)
Language                         : English

Audio #1
ID                               : 2
Format                           : AC-3
Format/Info                      : Audio Coding 3
Mode extension                   : CM (complete main)
Codec ID                         : A_AC3
Duration                         : 56mn 6s
Bit rate mode                    : Constant
Bit rate                         : 192 Kbps
Channel(s)                       : 2 channels
Channel positions                : Front: L R
Sampling rate                    : 44.1 KHz
Bit depth                        : 16 bits
Compression mode                 : Lossy
Stream size                      : 77.0 MiB (5%)
Title                            : FirstCh
Language                         : Russian

Audio #2
ID                               : 3
Format                           : AC-3
Format/Info                      : Audio Coding 3
Mode extension                   : CM (complete main)
Codec ID                         : A_AC3
Duration                         : 56mn 6s
Bit rate mode                    : Constant
Bit rate                         : 192 Kbps
Channel(s)                       : 2 channels
Channel positions                : Front: L R
Sampling rate                    : 44.1 KHz
Bit depth                        : 16 bits
Compression mode                 : Lossy
Stream size                      : 77.0 MiB (5%)
Language                         : English
picpicpicpic
Для увеличения картинки щелкните мышкой по превью

Этот торрент недоступен для скачивания без регистрации, однако доступен по публичной magnet-ссылке (источники с публичных трекеров). Перед использованием ссылки прочтите, пожалуйста Пользовательское соглашение, а также как можно дольше оставайтесь на раздаче! Для того, чтобы скачать сам торрент-файл (который видит больше источников), а также для того, чтобы поблагодарить релизера, вам необходимо зарегистрироваться. Если регистрироваться лень - вы можете также попробовать скачать релиз по нашим партнерским ссылкам ниже. Кроме того, зарегистрированным пользователям не показывается всплывающая реклама при скачивании.

[underverse.su].t24656.torrent
Трекер: Зарегистрирован   [ 01.03.2013 15:27 ]  

Статус: проверено (by Чертёнок at 01.03.2013 15:30)
Поблагодарили: 2 человека
Тип торрента: публичный - доступные источники с открытых трекеров: 
Размер: 18,1 GB (занимает 4,13 DVDR, для записи нужно 5 болванок DVDR/RW)
 
 
Похожие темы
Форум Тема Автор Торрент Отв. Посл. сооб.
Зарубежные сериалы Карточный Домик / House of Cards [сезон 2 / серии 01-13 (13)] (Джеймс Фоули / James Foley, Карл Франклин / Carl Franklin, Аллен Култер / Allen Coulter) [2014 г., драма, WEBRip] MVO (Первый канал) 90ytr90
29 | 2

0 | 5649

118

29.03.2014 14:31

Зарубежные сериалы Карточный домик / House of Cards / Сезон 3 (1-13 серии из 13) (Джеймс Фоули, Джон Дэвид Коулз, Карл Франклин) [2015 г., драма, WEBRip] MVO (Первый канал) older
10 | 0

1 | 2533

37

22.06.2017 01:20

Архив (Сериалы) Карточный домик / House of Cards [01х01-13] (Джеймс Фоули, Дэвид Финчер, Карл Франклин) [2013 г., Драма, WEBRip] MVO 90ytr90
2 | 0

3 | 3005

83

31.01.2018 16:56

? Архив (Сериалы) Карточный Домик / House of Cards / Season 1 [series 1-13] ( Джеймс Фоули, Дэвид Финчер, Карл Франклин, Робин Райт, Аллен Култер, Джоэл Шумахер, Джоди Фостер) [2013 г., Драма, HDRip] MVO Smilee
0 | 0

2 | 1145

0

31.01.2018 17:01

Voodoochild 

16-Апр-2013 20:38

почему не написано, что не везде английская дорожка есть?

Чертёнок Пол:Муж

17-Апр-2013 08:57

А я от куда знаю?фильм не смотрел.

Voodoochild писал(а):

почему не написано, что не везде английская дорожка есть?

d0lg0v4 Пол:Жен

25-Май-2013 04:40

Кевин Спейси! надо брать!!!

Яндекс.Метрика powered by Sphinx


В Н И М А Н И Е
Сайт не распространяет и не хранит электронные версии произведений, а лишь бесплатно и без коммерческой выгоды (не требуя взамен платы,
SMS и т.д.) предоставляет доступ к создаваемому пользователями каталогу ссылок на торрент-файлы, которые содержат только списки хеш-сумм.
Убедительная просьба с жалобами обращаться напрямую к пользователю, разместившему торрент файл.

Вверх