Loading...
Error

Декстер / Правосудие Декстера / Dexter / Сезон: 4 / Серии: 1-12 (12) (Маркос Сига, Тим Хантер, Кейт Гордон) [2009 г., драма, криминал, триллер, BDRip 720p] 2xMVO (NovaFiLM+FoxCrime) + Original

Статистика раздачи
Размер:  30,4 GB   |    Зарегистрирован:  5 лет 8 месяцев   |    Скачан:  8 раз

Полного источника не было: 1 месяц 5 дней

Сидов:  0  |  0 KB/s  ]   Личеров:  0  |  0 KB/s  ]

* - сиды/пиры с внешних источников

   
 
Автор Сообщение

Jimmy Пол:Муж

14-Мар-2013 16:31

Декстер / Правосудие Декстера / Dexter / Сезон: 4 / Серии: 1-12 (12)

Год выпуска: 2009
Жанр: драма, криминал, триллер
Страна: США
Режиссер: Маркос Сига, Тим Хантер, Кейт Гордон
В ролях: Майкл Холл, Джули Бенц, Дженифер Карпентер, Эрик Кинг, Лорен Велез, Дэвид Зайяс, Джеймс Ремар, Кристина Робинсон, Дэниэл Голдман
Сюжет фильма:
Дом в пригороде, любящая жена, трое детей... хронический недосып, проваленное дело в суде, жажда убийства, агент Лэнди, вернувшийся в Майами и загадочный маньяк, убивающий вот уже тридцать лет — будни Декстера Моргана становятся все более насыщенными и разнообразными.
Можно ли удержаться на грани, если в одной руке у тебя разделочный нож, а в другой — памперс? Удастся ли прислушаться к Темному Попутчику, если в ушах постоянно звучит детский плач? И кем, в конечном итоге, сложнее быть — обычным человеком или маньяком-убийцей?

Качество видео: BDRip 720p

Продолжительность: 00:54:09
Формат: mkv
Видео: x264, 1280x720, 5386 kbps
Аудио #1: русский, многоголосый закадровый [NovaFiLM], AC3 5.1, 448 kbps
Аудио #2: русский, многоголосый закадровый [FoxCrime], AC3 5.1, 448 kbps
Аудио #3: английский, оригинал, AC3 5.1, 448 kbps
Субтитры #1: вшитые отключаемые, S_TEXT/UTF8, русский
Субтитры #2: вшитые отключаемые, S_TEXT/UTF8, английский

Код:

General
Complete name                    : F:\Видео\Сериалы\Dexter\Dexter.s4.BDRip.720p\Dexter.s04e01.Living.the.Dream.mkv
Format                           : Matroska
File size                        : 2.60 GiB
Duration                         : 54mn 9s
Overall bit rate                 : 6 867 Kbps
Encoded date                     : UTC 2012-11-16 08:55:30
Writing application              : mkvmerge v5.8.0 ('No Sleep / Pillow') built on Sep  2 2012 15:37:04
Writing library                  : libebml v1.2.3 + libmatroska v1.3.0

Video
ID                               : 1
Format                           : AVC
Format/Info                      : Advanced Video Codec
Format profile                   : High@L4.0
Format settings, CABAC           : Yes
Format settings, ReFrames        : 9 frames
Muxing mode                      : Container profile=Unknown@4.0
Codec ID                         : V_MPEG4/ISO/AVC
Duration                         : 54mn 6s
Bit rate                         : 5 386 Kbps
Nominal bit rate                 : 5 521 Kbps
Width                            : 1 280 pixels
Height                           : 720 pixels
Display aspect ratio             : 16/9
Frame rate                       : 23.976 fps
Resolution                       : 24 bits
Colorimetry                      : 4:2:0
Scan type                        : Progressive
Bits/(Pixel*Frame)               : 0.244
Stream size                      : 2.04 GiB (78%)
Writing library                  : x264 core 124 r2197 69a0443
Encoding settings                : cabac=1 / ref=9 / deblock=1:-2:-2 / analyse=0x3:0x133 / me=umh / subme=11 / psy=1 / psy_rd=1.00:0.15 / mixed_ref=1 / me_range=32 / chroma_me=1 / trellis=2 / 8x8dct=1 / cqm=0 / deadzone=21,11 / fast_pskip=0 / chroma_qp_offset=-3 / threads=6 / sliced_threads=0 / nr=0 / decimate=1 / interlaced=0 / bluray_compat=0 / constrained_intra=0 / bframes=16 / b_pyramid=2 / b_adapt=2 / b_bias=0 / direct=3 / weightb=1 / open_gop=0 / weightp=2 / keyint=240 / keyint_min=23 / scenecut=40 / intra_refresh=0 / rc=2pass / mbtree=0 / bitrate=5521 / ratetol=1.0 / qcomp=0.60 / qpmin=0 / qpmax=69 / qpstep=4 / cplxblur=20.0 / qblur=0.5 / ip_ratio=1.40 / pb_ratio=1.30 / aq=1:1.00

Audio #1
ID                               : 2
Format                           : AC-3
Format/Info                      : Audio Coding 3
Codec ID                         : A_AC3
Duration                         : 54mn 9s
Bit rate mode                    : Constant
Bit rate                         : 448 Kbps
Channel(s)                       : 6 channels
Channel positions                : Front: L C R, Surround: L R, LFE
Sampling rate                    : 48.0 KHz
Stream size                      : 174 MiB (7%)
Title                            : NovaFiLM
Language                         : Russian

Audio #2
ID                               : 3
Format                           : AC-3
Format/Info                      : Audio Coding 3
Codec ID                         : A_AC3
Duration                         : 54mn 9s
Bit rate mode                    : Constant
Bit rate                         : 448 Kbps
Channel(s)                       : 6 channels
Channel positions                : Front: L C R, Surround: L R, LFE
Sampling rate                    : 48.0 KHz
Stream size                      : 174 MiB (7%)
Title                            : FoxCrime
Language                         : Russian

Audio #3
ID                               : 4
Format                           : AC-3
Format/Info                      : Audio Coding 3
Codec ID                         : A_AC3
Duration                         : 54mn 9s
Bit rate mode                    : Constant
Bit rate                         : 448 Kbps
Channel(s)                       : 6 channels
Channel positions                : Front: L C R, Surround: L R, LFE
Sampling rate                    : 48.0 KHz
Stream size                      : 174 MiB (7%)

Text #1
ID                               : 5
Format                           : UTF-8
Codec ID                         : S_TEXT/UTF8
Codec ID/Info                    : UTF-8 Plain Text
Language                         : Russian

Text #2
ID                               : 6
Format                           : UTF-8
Codec ID                         : S_TEXT/UTF8
Codec ID/Info                    : UTF-8 Plain Text

Menu
00:00:00.000                     : en:00:00:00.000
00:04:30.312                     : en:00:04:30.312
00:12:40.969                     : en:00:12:40.969
00:22:57.543                     : en:00:22:57.543
00:30:52.726                     : en:00:30:52.726
00:40:01.691                     : en:00:40:01.691
00:46:05.721                     : en:00:46:05.721

Семпл: http://multi-up.com/706841
pic pic pic pic
Для увеличения картинки щелкните мышкой по превью

Этот торрент недоступен для скачивания без регистрации, однако доступен по публичной magnet-ссылке (источники с публичных трекеров). Перед использованием ссылки прочтите, пожалуйста Пользовательское соглашение, а также как можно дольше оставайтесь на раздаче! Для того, чтобы скачать сам торрент-файл (который видит больше источников), а также для того, чтобы поблагодарить релизера, вам необходимо зарегистрироваться. Если регистрироваться лень - вы можете также попробовать скачать релиз по нашим партнерским ссылкам ниже. Кроме того, зарегистрированным пользователям не показывается всплывающая реклама при скачивании.

[underverse.su].t25027.torrent
Трекер: Зарегистрирован   [ 14.03.2013 16:31 ]  

Статус: проверено (by Jimmy at 14.03.2013 16:32)
Поблагодарили: пока никто не поблагодарил...
Тип торрента: публичный - доступные источники с открытых трекеров: 
Размер: 30,4 GB (занимает 6,94 DVDR, для записи нужно 7 болванок DVDR/RW)
 
 
Похожие темы
Форум Тема Автор Торрент Отв. Посл. сооб.
Зарубежные сериалы Декстер / Правосудие Декстера / Dexter / Сезон 8 / Серии 1-12 из 12 (Джон Дал, Роберт Либерман, Ник Гомез) [2013 г., Триллер, драма, криминал, детектив, HDTVRip] MVO + Original Чертёнок
2 | 0

1 | 3274

10

26.09.2013 19:09

Зарубежные сериалы [BD / Remux / BDRip / WEB-DL / HDTV 1080/720р] Декстер / Правосудие Декстера / Dexter / Сезон: 1 / Серии: 1-12 (12) (Майкл Куэста, Тони Голдуин, Кейт Гордон) [2006 г., драма, криминал, триллер, BDRip 720p] 2xMVO (NovaFiLM+FoxCrime) + Original Jimmy
15 | 2

0 | 2440

10

07.03.2013 11:24

Зарубежные сериалы [BD / Remux / BDRip / WEB-DL / HDTV 1080/720р] Декстер / Правосудие Декстера / Dexter / Сезон: 2 / Серии: 1-12 (12) (Маркос Сига, Тим Хантер, Кейт Гордон) [2007 г., драма, криминал, триллер, BDRip 720p] 2xMVO (NovaFiLM+FoxCrime) + Original Jimmy
22 | 4

0 | 2792

9

08.03.2013 18:19

Зарубежные сериалы [BD / Remux / BDRip / WEB-DL / HDTV 1080/720р] Декстер / Правосудие Декстера / Dexter / Сезон: 3 / Серии: 1-12 (12) (Маркос Сига, Тим Хантер, Кейт Гордон) [2008 г., драма, криминал, триллер, BDRip 720p] 2xMVO (NovaFiLM+FoxCrime) + Original Jimmy
10 | 1

0 | 2648

9

12.03.2013 14:08

Зарубежные сериалы [BD / Remux / BDRip / WEB-DL / HDTV 1080/720р] Декстер / Dexter / Сезон: 8 / Серии: 1-12 из 12 (Маркос Сига, Тим Хантер, Кит Гордон) [2013 г., триллер, драма, HDTVRip 720р] MVO (LostFilm) + Original + Subs (Rus, Eng) Jimmy
7 | 2

1 | 2471

4

26.10.2013 07:34


Яндекс.Метрика powered by Sphinx


В Н И М А Н И Е
Сайт не распространяет и не хранит электронные версии произведений, а лишь бесплатно и без коммерческой выгоды (не требуя взамен платы,
SMS и т.д.) предоставляет доступ к создаваемому пользователями каталогу ссылок на торрент-файлы, которые содержат только списки хеш-сумм.
Убедительная просьба с жалобами обращаться напрямую к пользователю, разместившему торрент файл.

Вверх