Loading...
Error

(Reggae) Fantan Mojah - Stronger (2008) [FLAC (Tracks+.CUE), lossless]

Статистика раздачи
Размер:  387 MB   |    Зарегистрирован:  3 года 5 месяцев   |    Скачан:  3 раза

Полного источника не было: 5 месяцев 17 дней

Сидов:  0  |  0 KB/s  ]   Личеров:  0  |  0 KB/s  ]

* - сиды/пиры с внешних источников

   
 
Автор Сообщение

momon Пол:Муж

19-Мар-2013 17:28

Fantan Mojah - Stronger


Жанр: Reggae
Год выпуска: 2008
Производитель диска: Greensleeves Records‎ - GRE2002
Аудиокодек: FLAC
Тип рипа: Tracks+.CUE
Битрейт аудио: lossless
Продолжительность: 00:57:32

Треклист:

01. Intro (2:55)
02. Stronger (3:50)
03. Jah Jah You Are The One (3:52)
04. Dun Dem (4:08)
05. Can't Frame I (2:56)
06. Stay Positive (3:13)
07. So Many Problems (3:43)
08. No Ordinary Herb (3:59)
09. Jah Time (2:57)
10. How Can I Be Ungrateful (3:37)
11. Most High Jah (3:44)
12. No Mercy (3:33)
13. Tell Lie Pon Rasta (3:20)
14. Fight To Survive (4:02)
15. Where Is Love (4:11)
16. You Can Make It (3:32)
Exact Audio Copy V0.99 prebeta 5 from 4. May 2009

EAC extraction logfile from 25. June 2009, 16:00

Fantan Mojah / Stronger

Used drive : SAMSUNG CDRW/DVD SN-324S Adapter: 1 ID: 0

Read mode : Secure
Utilize accurate stream : Yes
Defeat audio cache : Yes
Make use of C2 pointers : No

Read offset correction : 6
Overread into Lead-In and Lead-Out : No
Fill up missing offset samples with silence : Yes
Delete leading and trailing silent blocks : No
Null samples used in CRC calculations : Yes
Used interface : Installed external ASPI interface
Gap handling : Appended to previous track

Used output format : User Defined Encoder
Selected bitrate : 768 kBit/s
Quality : High
Add ID3 tag : No
Command line compressor : C:\Programfiler\Exact Audio Copy\FLAC\FLAC.EXE
Additional command line options : -V -8 -T "artist=%a" -T "title=%t" -T "album=%g" -T "date=%y" -T "tracknumber=%n" -T "genre=%m" %s

TOC of the extracted CD

Track | Start | Length | Start sector | End sector
---------------------------------------------------------
1 | 0:00.00 | 2:55.01 | 0 | 13125
2 | 2:55.01 | 3:50.26 | 13126 | 30401
3 | 6:45.27 | 3:51.60 | 30402 | 47786
4 | 10:37.12 | 4:08.01 | 47787 | 66387
5 | 14:45.13 | 2:56.00 | 66388 | 79587
6 | 17:41.13 | 3:12.61 | 79588 | 94048
7 | 20:53.74 | 3:43.24 | 94049 | 110797
8 | 24:37.23 | 3:59.27 | 110798 | 128749
9 | 28:36.50 | 2:57.24 | 128750 | 142048
10 | 31:33.74 | 3:37.03 | 142049 | 158326
11 | 35:11.02 | 3:43.54 | 158327 | 175105
12 | 38:54.56 | 3:33.03 | 175106 | 191083
13 | 42:27.59 | 3:19.52 | 191084 | 206060
14 | 45:47.36 | 4:02.02 | 206061 | 224212
15 | 49:49.38 | 4:10.53 | 224213 | 243015
16 | 54:00.16 | 3:32.30 | 243016 | 258945

Track 1

Filename C:\EAC rips\Fantan Mojah - 2008 - Stronger\01 - Intro.wav

Pre-gap length 0:00:02.00

Peak level 98.2 %
Track quality 100.0 %
Test CRC 5628F18B
Copy CRC 5628F18B
Track not present in AccurateRip database
Copy OK

Track 2

Filename C:\EAC rips\Fantan Mojah - 2008 - Stronger\02 - Stronger.wav

Peak level 98.2 %
Track quality 100.0 %
Test CRC BBFDEE92
Copy CRC BBFDEE92
Track not present in AccurateRip database
Copy OK

Track 3

Filename C:\EAC rips\Fantan Mojah - 2008 - Stronger\03 - Jah Jah You Are The One.wav

Peak level 98.2 %
Track quality 100.0 %
Test CRC 679501DA
Copy CRC 679501DA
Track not present in AccurateRip database
Copy OK

Track 4

Filename C:\EAC rips\Fantan Mojah - 2008 - Stronger\04 - Dun Dem.wav

Peak level 98.2 %
Track quality 100.0 %
Test CRC 1392702A
Copy CRC 1392702A
Track not present in AccurateRip database
Copy OK

Track 5

Filename C:\EAC rips\Fantan Mojah - 2008 - Stronger\05 - Can't Frame I.wav

Peak level 98.2 %
Track quality 99.9 %
Test CRC CA1DA220
Copy CRC CA1DA220
Track not present in AccurateRip database
Copy OK

Track 6

Filename C:\EAC rips\Fantan Mojah - 2008 - Stronger\06 - Stay Positive.wav

Peak level 98.2 %
Track quality 100.0 %
Test CRC 3AC4F511
Copy CRC 3AC4F511
Track not present in AccurateRip database
Copy OK

Track 7

Filename C:\EAC rips\Fantan Mojah - 2008 - Stronger\07 - So Many Problems.wav

Peak level 98.2 %
Track quality 100.0 %
Test CRC 8B9540D7
Copy CRC 8B9540D7
Track not present in AccurateRip database
Copy OK

Track 8

Filename C:\EAC rips\Fantan Mojah - 2008 - Stronger\08 - No Ordinary Herb.wav

Peak level 98.2 %
Track quality 100.0 %
Test CRC FD09AEB0
Copy CRC FD09AEB0
Track not present in AccurateRip database
Copy OK

Track 9

Filename C:\EAC rips\Fantan Mojah - 2008 - Stronger\09 - Jah Time.wav

Peak level 98.2 %
Track quality 99.9 %
Test CRC DD2CE1CF
Copy CRC DD2CE1CF
Track not present in AccurateRip database
Copy OK

Track 10

Filename C:\EAC rips\Fantan Mojah - 2008 - Stronger\10 - How Can I Be Ungrateful.wav

Peak level 98.0 %
Track quality 100.0 %
Test CRC 6E83C28C
Copy CRC 6E83C28C
Track not present in AccurateRip database
Copy OK

Track 11

Filename C:\EAC rips\Fantan Mojah - 2008 - Stronger\11 - Most High Jah.wav

Peak level 98.2 %
Track quality 100.0 %
Test CRC 49F9FE52
Copy CRC 49F9FE52
Track not present in AccurateRip database
Copy OK

Track 12

Filename C:\EAC rips\Fantan Mojah - 2008 - Stronger\12 - No Mercy.wav

Peak level 98.2 %
Track quality 100.0 %
Test CRC 5A5ACC14
Copy CRC 5A5ACC14
Track not present in AccurateRip database
Copy OK

Track 13

Filename C:\EAC rips\Fantan Mojah - 2008 - Stronger\13 - Tell Lie Pon Rasta.wav

Peak level 98.2 %
Track quality 100.0 %
Test CRC 6B51BFFB
Copy CRC 6B51BFFB
Track not present in AccurateRip database
Copy OK

Track 14

Filename C:\EAC rips\Fantan Mojah - 2008 - Stronger\14 - Fight To Survive.wav

Peak level 98.0 %
Track quality 100.0 %
Test CRC BC58C820
Copy CRC BC58C820
Track not present in AccurateRip database
Copy OK

Track 15

Filename C:\EAC rips\Fantan Mojah - 2008 - Stronger\15 - Where Is Love.wav

Peak level 98.0 %
Track quality 99.9 %
Test CRC E8B96DAF
Copy CRC E8B96DAF
Track not present in AccurateRip database
Copy OK

Track 16

Filename C:\EAC rips\Fantan Mojah - 2008 - Stronger\16 - You Can Make It.wav

Peak level 98.2 %
Track quality 100.0 %
Test CRC 1552C546
Copy CRC 1552C546
Track not present in AccurateRip database
Copy OK

None of the tracks are present in the AccurateRip database

No errors occurred

End of status report
pic
Для увеличения картинки щелкните мышкой по превью

Этот торрент недоступен для скачивания без регистрации, однако доступен по публичной magnet-ссылке (источники с публичных трекеров). Перед использованием ссылки прочтите, пожалуйста Пользовательское соглашение, а также как можно дольше оставайтесь на раздаче! Для того, чтобы скачать сам торрент-файл (который видит больше источников), а также для того, чтобы поблагодарить релизера, вам необходимо зарегистрироваться. Если регистрироваться лень - вы можете также попробовать скачать релиз по нашим партнерским ссылкам ниже. Кроме того, зарегистрированным пользователям не показывается всплывающая реклама при скачивании.

[underverse.su].t33786.torrent
Трекер: Зарегистрирован   [ 27.04.2015 18:48 ]  

Статус: проверено (by Бишеп at 27.04.2015 18:48)
Поблагодарили: 1 человек
Тип торрента: публичный - доступные источники с открытых трекеров: 
Размер: 387 MB (занимает 0,09 DVDR, для записи нужно 1 болванка DVDR/RW)
 
 


Последний раз редактировалось: momon (19.03.2013 18:16), всего редактировалось 1 раз

momon Пол:Муж

19-Мар-2013 18:19

Бишеп
ну вроде все исправил, первый раз еще не научился

Яндекс.Метрика powered by Sphinx


В Н И М А Н И Е
Сайт не распространяет и не хранит электронные версии произведений, а лишь бесплатно и без коммерческой выгоды (не требуя взамен платы,
SMS и т.д.) предоставляет доступ к создаваемому пользователями каталогу ссылок на торрент-файлы, которые содержат только списки хеш-сумм.
Убедительная просьба с жалобами обращаться напрямую к пользователю, разместившему торрент файл.

Вверх