Loading...
Error

(Punk-Hardcore) Пурген (Purgen, Toxigen) - Дискография [Российские Издания] [13 альбомов/14CD] (1992-2010 [APE (image+.cue), lossless]

Статистика раздачи
Размер:  5,17 GB   |    Зарегистрирован:  5 лет 4 месяца   |    Скачан:  3 раза

Полного источника не было: 19 дней

Сидов:  0  |  0 KB/s  ]   Личеров:  0  |  0 KB/s  ]

* - сиды/пиры с внешних источников

   
 
Автор Сообщение

Jimmy Пол:Муж

23-Мар-2013 15:59

Пурген - Дискография
Жанр: Punk-Hardcore
Производитель диска: Россия
Аудио кодек: APE
Тип рипа: image+.cue
Битрейт аудио: lossless
Продолжительность: 11:01:04

pic
1. Интро
2. Я настоящий человек
3. Колумбарий
4. Изерли
5. Негативные люди
6. Майданек
7. Это не то что я думал
8. Полет в мусоропровод
9. Тело человеку дается как машина
10. Я буду прогрессивен
11. Все вокруг меня без смысла
12. Интро (Bonus Track)
13. Изерли (Bonus Track)
14. Майданек (Bonus Track)
15. Это не то что я думал (Bonus Track)
16. Полет в мусоропровод (Bonus Track)
17. Я буду прогрессивен (Bonus Track)
Exact Audio Copy V0.99 prebeta 4 from 23. January 2008

Отчёт EAC об извлечении, выполненном 31. октября 2008, 13:55

Пурген / Все Государства - Концлагеря [2002. Мистерия Звука] [JN-009-2]

Дисковод: HL-DT-STDVDRAM GSA-H42L Adapter: 0 ID: 0

Режим чтения : Достоверность
Использование точного потока : Да
Отключение кэша аудио : Да
Использование указателей C2 : Нет

Коррекция смещения при чтении : 667
Способность читать области Lead-in и Lead-out : Нет
Заполнение пропущенных сэмплов тишиной : Да
Удаление блоков с тишиной в начале и конце : Нет
При вычислениях CRC использовались нулевые сэмплы : Да
Интерфейс : Встроенный Win32-интерфейс для Win NT/2000

Выходной формат : Внутренние WAV-операции
Формат сэмплов : 44.100 Гц; 16 бит; стерео

TOC извлечённого CD

Трек | Старт | Длительность | Начальный сектор | Конечный сектор
---------------------------------------------------------------------
1 | 0:00.00 | 0:59.63 | 0 | 4487
2 | 0:59.63 | 1:13.13 | 4488 | 9975
3 | 2:13.01 | 2:28.31 | 9976 | 21106
4 | 4:41.32 | 2:36.13 | 21107 | 32819
5 | 7:17.45 | 2:23.58 | 32820 | 43602
6 | 9:41.28 | 2:46.65 | 43603 | 56117
7 | 12:28.18 | 2:41.05 | 56118 | 68197
8 | 15:09.23 | 1:52.01 | 68198 | 76598
9 | 17:01.24 | 2:37.66 | 76599 | 88439
10 | 19:39.15 | 1:47.50 | 88440 | 96514
11 | 21:26.65 | 1:22.34 | 96515 | 102698
12 | 22:49.24 | 1:20.69 | 102699 | 108767
13 | 24:10.18 | 2:45.19 | 108768 | 121161
14 | 26:55.37 | 2:16.67 | 121162 | 131428
15 | 29:12.29 | 2:45.61 | 131429 | 143864
16 | 31:58.15 | 2:01.46 | 143865 | 152985
17 | 33:59.61 | 1:51.31 | 152986 | 161341
18 | 38:23.17 | 3:27.58 | 172742 | 188324

Характеристики диапазона извлечения и сообщения об ошибках

Выбранный диапазон

Имя файла C:\Пурген - Все Государства - Концлагеря [2002. Мистерия Звука] [JN-009-2].wav

Пиковый уровень 100.0 %
Качество диапазона 100.0 %
CRC теста 739C2F3F
CRC копии 739C2F3F
Копирование... OK

Ошибок не произошло

AccurateRip: сводка

Трек 1 точное извлечение (доверие 2) [570B1CA9]
Трек 2 нет в базе данных
Трек 3 нет в базе данных
Трек 4 нет в базе данных
Трек 5 нет в базе данных
Трек 6 нет в базе данных
Трек 7 нет в базе данных
Трек 8 нет в базе данных
Трек 9 нет в базе данных
Трек 10 нет в базе данных
Трек 11 нет в базе данных
Трек 12 нет в базе данных
Трек 13 нет в базе данных
Трек 14 нет в базе данных
Трек 15 нет в базе данных
Трек 16 нет в базе данных
Трек 17 нет в базе данных

1 трек(и) скопированы точно
16 трек(и) не содержатся в базе AccurateRip

Некоторые треки не прошли проверку на точность

Конец отчёта
pic
1. Город крыс
2. Дохлая музыка
3. Вам дан приказ
4. Трансплантация мировоззрения
5. Негативные люди
6. Все люди - чикатилы
7. Ваше любимое место - унитаз
8. Автоответчики
9. Эвтаназия
10. Зародиш панк-рока
11. Помойки из людей
12. Я настоящий человек (Bonus Track)
13. Майданек (Bonus Track)
14. Все вокруг меня без смысла (Bonus Track)
15. Изерли (Bonus Track)
16. Колумбарий (Bonus Track)
17. Тело человека (Bonus Track)
Exact Audio Copy V0.99 prebeta 4 from 23. January 2008

Отчёт EAC об извлечении, выполненном 31. октября 2008, 15:27

Пурген / Трансплантация Мировоззрения [2002. Мистерия Звука] [JN-010-2]

Дисковод: HL-DT-STDVDRAM GSA-H42L Adapter: 0 ID: 0

Режим чтения : Достоверность
Использование точного потока : Да
Отключение кэша аудио : Да
Использование указателей C2 : Нет

Коррекция смещения при чтении : 667
Способность читать области Lead-in и Lead-out : Нет
Заполнение пропущенных сэмплов тишиной : Да
Удаление блоков с тишиной в начале и конце : Нет
При вычислениях CRC использовались нулевые сэмплы : Да
Интерфейс : Встроенный Win32-интерфейс для Win NT/2000

Выходной формат : Внутренние WAV-операции
Формат сэмплов : 44.100 Гц; 16 бит; стерео

TOC извлечённого CD

Трек | Старт | Длительность | Начальный сектор | Конечный сектор
---------------------------------------------------------------------
1 | 0:00.00 | 2:57.40 | 0 | 13314
2 | 2:57.40 | 1:59.39 | 13315 | 22278
3 | 4:57.04 | 2:25.63 | 22279 | 33216
4 | 7:22.67 | 3:26.51 | 33217 | 48717
5 | 10:49.43 | 2:05.03 | 48718 | 58095
6 | 12:54.46 | 4:08.48 | 58096 | 76743
7 | 17:03.19 | 1:52.07 | 76744 | 85150
8 | 18:55.26 | 3:20.42 | 85151 | 100192
9 | 22:15.68 | 3:22.09 | 100193 | 115351
10 | 25:38.02 | 2:16.06 | 115352 | 125557
11 | 27:54.08 | 3:38.58 | 125558 | 141965
12 | 31:32.66 | 1:10.50 | 141966 | 147265
13 | 32:43.41 | 2:53.45 | 147266 | 160285
14 | 35:37.11 | 1:23.20 | 160286 | 166530
15 | 37:00.31 | 2:14.72 | 166531 | 176652
16 | 39:15.28 | 1:36.70 | 176653 | 183922
17 | 40:52.23 | 2:54.33 | 183923 | 197005
18 | 46:18.56 | 4:47.41 | 208406 | 229971

Характеристики диапазона извлечения и сообщения об ошибках

Выбранный диапазон

Имя файла C:\Пурген - Трансплантация Мировоззрения [2002. Мистерия Звука] [JN-010-2].wav

Пиковый уровень 100.0 %
Качество диапазона 100.0 %
CRC теста 36FD0E19
CRC копии 36FD0E19
Копирование... OK

Ошибок не произошло

AccurateRip: сводка

Трек 1 точное извлечение (доверие 1) [97A3CED1]
Трек 2 точное извлечение (доверие 1) [65F5A493]
Трек 3 точное извлечение (доверие 1) [CDC46468]
Трек 4 точное извлечение (доверие 1) [0CECCD9B]
Трек 5 точное извлечение (доверие 1) [9B5FBBEE]
Трек 6 точное извлечение (доверие 1) [3636B8DC]
Трек 7 точное извлечение (доверие 1) [73CF40EF]
Трек 8 точное извлечение (доверие 1) [C1752352]
Трек 9 точное извлечение (доверие 1) [75F40233]
Трек 10 точное извлечение (доверие 1) [83EE2C15]
Трек 11 точное извлечение (доверие 1) [8C5A8A8F]
Трек 12 точное извлечение (доверие 1) [14CE8B86]
Трек 13 точное извлечение (доверие 1) [4FA11B35]
Трек 14 точное извлечение (доверие 1) [5B890A5E]
Трек 15 точное извлечение (доверие 1) [87A14552]
Трек 16 точное извлечение (доверие 1) [859B9B2F]
Трек 17 точное извлечение (доверие 1) [4602C039]

Все треки извлечены точно

Конец отчёта
pic
1. Интро
2. Работэйшэн полный диградэйшэн!
3. Мёртвый политик
4. Индустрия смерти
5. Атомная романтика
6. Ядерный взрыв
7. Не доверяй военным
8. Отстаньте и забудьте!
9. Панк эйфория
10. Почему не я?
11. Панк дестроер революшен
12. Помойки из людей (Bonus Track)
13. Дохлая музыка (Bonus Track)
14. Я настоящий человек (Bonus Track)
15. Всё вокруг меня без смысла (Bonus Track)
Exact Audio Copy V0.99 prebeta 4 from 23. January 2008

Отчёт EAC об извлечении, выполненном 31. октября 2008, 16:08

Пурген / Радиационная Активность Из Мусорного Бака [2002. Мистерия Звука] [JN-011-2]

Дисковод: HL-DT-STDVDRAM GSA-H42L Adapter: 0 ID: 0

Режим чтения : Достоверность
Использование точного потока : Да
Отключение кэша аудио : Да
Использование указателей C2 : Нет

Коррекция смещения при чтении : 667
Способность читать области Lead-in и Lead-out : Нет
Заполнение пропущенных сэмплов тишиной : Да
Удаление блоков с тишиной в начале и конце : Нет
При вычислениях CRC использовались нулевые сэмплы : Да
Интерфейс : Встроенный Win32-интерфейс для Win NT/2000

Выходной формат : Внутренние WAV-операции
Формат сэмплов : 44.100 Гц; 16 бит; стерео

TOC извлечённого CD

Трек | Старт | Длительность | Начальный сектор | Конечный сектор
---------------------------------------------------------------------
1 | 0:00.00 | 1:40.02 | 0 | 7501
2 | 1:40.02 | 2:19.45 | 7502 | 17971
3 | 3:59.47 | 2:54.46 | 17972 | 31067
4 | 6:54.18 | 2:27.60 | 31068 | 42152
5 | 9:22.03 | 1:55.66 | 42153 | 50843
6 | 11:17.69 | 2:17.32 | 50844 | 61150
7 | 13:35.26 | 2:25.22 | 61151 | 72047
8 | 16:00.48 | 1:47.28 | 72048 | 80100
9 | 17:48.01 | 3:09.43 | 80101 | 94318
10 | 20:57.44 | 1:32.04 | 94319 | 101222
11 | 22:29.48 | 1:11.11 | 101223 | 106558
12 | 23:40.59 | 3:35.14 | 106559 | 122697
13 | 27:15.73 | 1:48.72 | 122698 | 130869
14 | 29:04.70 | 1:27.32 | 130870 | 137426
15 | 30:32.27 | 1:17.34 | 137427 | 143235
16 | 34:21.61 | 3:08.16 | 154636 | 168751

Характеристики диапазона извлечения и сообщения об ошибках

Выбранный диапазон

Имя файла C:\Пурген - Радиационная Активность Из Мусорного Бака [2002. Мистерия Звука] [JN-011-2].wav

Пиковый уровень 100.0 %
Качество диапазона 100.0 %
CRC теста CB8A7663
CRC копии CB8A7663
Копирование... OK

Ошибок не произошло

AccurateRip: сводка

Трек 1 точность не определена (достоверность 1) [40947674], AccurateRip вернул [9A4C8BCC]
Трек 2 точность не определена (достоверность 1) [DCE47519], AccurateRip вернул [460AB701]
Трек 3 точность не определена (достоверность 1) [842EB25B], AccurateRip вернул [B4059AE3]
Трек 4 точность не определена (достоверность 1) [94D0BB74], AccurateRip вернул [7010BBCC]
Трек 5 точность не определена (достоверность 1) [2E99DFE4], AccurateRip вернул [6F26BF2C]
Трек 6 точность не определена (достоверность 1) [417F3A4E], AccurateRip вернул [ADF6EE96]
Трек 7 точность не определена (достоверность 1) [F511DFEA], AccurateRip вернул [E1FF402A]
Трек 8 точность не определена (достоверность 1) [88906FB3], AccurateRip вернул [89893C0B]
Трек 9 точность не определена (достоверность 1) [06DE2054], AccurateRip вернул [B2D7A3CC]
Трек 10 точность не определена (достоверность 1) [1A89C86C], AccurateRip вернул [76B40FD4]
Трек 11 точность не определена (достоверность 1) [D31BC237], AccurateRip вернул [8BBFEB37]
Трек 12 точность не определена (достоверность 1) [A57421DC], AccurateRip вернул [3BBC5E4C]
Трек 13 точность не определена (достоверность 1) [20C90590], AccurateRip вернул [4CD4C1C0]
Трек 14 точность не определена (достоверность 1) [B49EA66E], AccurateRip вернул [8109ADCE]
Трек 15 точность не определена (достоверность 1) [C84607B5], AccurateRip вернул [40F9121D]

Ни один трек не прошёл проверки на точность
В вашей базе может быть иной вариант штамповки диска

Конец отчёта
pic
1.Intro
2. Жизнь - это товар
3. Философия урбанистического безвремения
4. Песенка пивного панка
5. Индустрия смерти
6. Анархия
7. За смертью бессмертия нет
8. Мечты ребенка
9. Не голосуй
10. Любовь убивает
11. Intro Off
Exact Audio Copy V0.99 prebeta 4 from 23. January 2008

Отчёт EAC об извлечении, выполненном 31. октября 2008, 15:43

Пурген / Философия Урбанистического Безвремения [2002. Мистерия Звука] [JN-012-2]

Дисковод: HL-DT-STDVDRAM GSA-H42L Adapter: 0 ID: 0

Режим чтения : Достоверность
Использование точного потока : Да
Отключение кэша аудио : Да
Использование указателей C2 : Нет

Коррекция смещения при чтении : 667
Способность читать области Lead-in и Lead-out : Нет
Заполнение пропущенных сэмплов тишиной : Да
Удаление блоков с тишиной в начале и конце : Нет
При вычислениях CRC использовались нулевые сэмплы : Да
Интерфейс : Встроенный Win32-интерфейс для Win NT/2000

Выходной формат : Внутренние WAV-операции
Формат сэмплов : 44.100 Гц; 16 бит; стерео

TOC извлечённого CD

Трек | Старт | Длительность | Начальный сектор | Конечный сектор
---------------------------------------------------------------------
1 | 0:00.00 | 2:12.56 | 0 | 9955
2 | 2:12.56 | 2:00.40 | 9956 | 18995
3 | 4:13.21 | 3:54.41 | 18996 | 36586
4 | 8:07.62 | 1:33.69 | 36587 | 43630
5 | 9:41.56 | 2:25.21 | 43631 | 54526
6 | 12:07.02 | 3:00.04 | 54527 | 68030
7 | 15:07.06 | 4:02.65 | 68031 | 86245
8 | 19:09.71 | 3:16.28 | 86246 | 100973
9 | 22:26.24 | 2:00.50 | 100974 | 110023
10 | 24:26.74 | 2:21.11 | 110024 | 120609
11 | 26:48.10 | 1:34.44 | 120610 | 127703
12 | 30:54.54 | 6:40.52 | 139104 | 169155

Характеристики диапазона извлечения и сообщения об ошибках

Выбранный диапазон

Имя файла C:\Пурген - Философия Урбанистического Безвремения [2002. Мистерия Звука] [JN-012-2].wav

Пиковый уровень 100.0 %
Качество диапазона 100.0 %
CRC теста BFFEE7FD
CRC копии BFFEE7FD
Копирование... OK

Ошибок не произошло

AccurateRip: сводка

Трек 1 точное извлечение (доверие 1) [80E873E0]
Трек 2 точное извлечение (доверие 1) [FD74496D]
Трек 3 точное извлечение (доверие 1) [2A903BB0]
Трек 4 точное извлечение (доверие 1) [D037FDF4]
Трек 5 точное извлечение (доверие 1) [3B841890]
Трек 6 точное извлечение (доверие 1) [D37D6923]
Трек 7 точное извлечение (доверие 1) [22D63601]
Трек 8 точное извлечение (доверие 1) [E887FE0A]
Трек 9 точное извлечение (доверие 1) [2DCD6990]
Трек 10 точное извлечение (доверие 1) [886A0932]
Трек 11 точное извлечение (доверие 1) [B8319220]

Все треки извлечены точно

Конец отчёта
pic
1. Фоторобот
2. Трагедия на Авиамоторной
3. Kristall Nacht
4. Чугунный мозг
5. Повесься - докажи всем, что ты слаб
6. Мёртвые крысы
7. 90-60-90
8. Москва не станет Лондоном
9. Мегасити
10. Killer - Бракодел
11. Раздвоение
12. Не голосуй!
Exact Audio Copy V0.99 prebeta 5 from 4. May 2009

EAC extraction logfile from 22. August 2010, 15:19

Пурген / Токсидермисты Городского Безумия [2001. Хобгоблин Records] [HBR CD-001]

Used drive : ASUS DRW-1814BLT Adapter: 2 ID: 0

Read mode : Secure
Utilize accurate stream : Yes
Defeat audio cache : Yes
Make use of C2 pointers : No

Read offset correction : 6
Overread into Lead-In and Lead-Out : No
Fill up missing offset samples with silence : Yes
Delete leading and trailing silent blocks : No
Null samples used in CRC calculations : Yes
Used interface : Native Win32 interface for Win NT & 2000

Used output format : User Defined Encoder
Selected bitrate : 32 kBit/s
Quality : High
Add ID3 tag : No
Command line compressor : C:\Program Files\FLAC\flac.exe
Additional command line options : -8 -V -T "ARTIST=%a" -T "TITLE=%t" -T "ALBUM=%g" -T "DATE=%y" -T "TRACKNUMBER=%n" -T "GENRE=%m" -T "COMMENT=EAC FLAC -8 / By xen0m0rph" %s

TOC of the extracted CD

Track | Start | Length | Start sector | End sector
---------------------------------------------------------
1 | 0:00.00 | 2:09.64 | 0 | 9738
2 | 2:09.64 | 4:50.66 | 9739 | 31554
3 | 7:00.55 | 3:25.08 | 31555 | 46937
4 | 10:25.63 | 2:45.01 | 46938 | 59313
5 | 13:10.64 | 2:32.26 | 59314 | 70739
6 | 15:43.15 | 3:32.13 | 70740 | 86652
7 | 19:15.28 | 2:18.14 | 86653 | 97016
8 | 21:33.42 | 1:47.22 | 97017 | 105063
9 | 23:20.64 | 2:52.10 | 105064 | 117973
10 | 26:12.74 | 2:55.17 | 117974 | 131115
11 | 29:08.16 | 2:19.20 | 131116 | 141560
12 | 31:27.36 | 2:05.60 | 141561 | 150995

Range status and errors

Selected range

Filename D:\Пурген - Токсидермисты Городского Безумия [2001. Хобгоблин Records] [HBR CD-001].wav

Peak level 97.0 %
Range quality 100.0 %
Test CRC C376732B
Copy CRC C376732B
Copy OK

No errors occurred

AccurateRip summary

Track 1 not present in database
Track 2 not present in database
Track 3 not present in database
Track 4 not present in database
Track 5 not present in database
Track 6 not present in database
Track 7 not present in database
Track 8 not present in database
Track 9 not present in database
Track 10 not present in database
Track 11 not present in database
Track 12 not present in database

None of the tracks are present in the AccurateRip database

End of status report
pic
1. Фоторобот
2. Трагедия на Авиамоторной
3. Kristall Nacht
4. Чугунный мозг
5. Повесься - докажи всем, что ты слаб
6. Мёртвые крысы
7. 90-60-90
8. Москва не станет Лондоном
9. Мегасити
10. Killer - Бракодел
11. Раздвоение
12. Не голосуй!
Exact Audio Copy V0.99 prebeta 4 from 23. January 2008

Отчёт EAC об извлечении, выполненном 31. октября 2008, 16:25

Пурген / Токсидермисты Городского Безумия [2003. Мистерия Звука] [JN-013-2]

Дисковод: HL-DT-STDVDRAM GSA-H42L Adapter: 0 ID: 0

Режим чтения : Достоверность
Использование точного потока : Да
Отключение кэша аудио : Да
Использование указателей C2 : Нет

Коррекция смещения при чтении : 667
Способность читать области Lead-in и Lead-out : Нет
Заполнение пропущенных сэмплов тишиной : Да
Удаление блоков с тишиной в начале и конце : Нет
При вычислениях CRC использовались нулевые сэмплы : Да
Интерфейс : Встроенный Win32-интерфейс для Win NT/2000

Выходной формат : Внутренние WAV-операции
Формат сэмплов : 44.100 Гц; 16 бит; стерео

TOC извлечённого CD

Трек | Старт | Длительность | Начальный сектор | Конечный сектор
---------------------------------------------------------------------
1 | 0:00.00 | 2:07.03 | 0 | 9527
2 | 2:07.03 | 4:48.41 | 9528 | 31168
3 | 6:55.44 | 3:41.08 | 31169 | 47751
4 | 10:36.52 | 2:43.67 | 47752 | 60043
5 | 13:20.44 | 2:31.55 | 60044 | 71423
6 | 15:52.24 | 3:22.45 | 71424 | 86618
7 | 19:14.69 | 2:15.58 | 86619 | 96801
8 | 21:30.52 | 1:45.41 | 96802 | 104717
9 | 23:16.18 | 3:05.09 | 104718 | 118601
10 | 26:21.27 | 2:53.56 | 118602 | 131632
11 | 29:15.08 | 2:17.42 | 131633 | 141949
12 | 31:32.50 | 2:06.70 | 141950 | 151469
13 | 36:11.45 | 8:29.31 | 162870 | 201075

Характеристики диапазона извлечения и сообщения об ошибках

Выбранный диапазон

Имя файла C:\Пурген - Токсидермисты Городского Безумия [2003. Мистерия Звука] [JN-013-2].wav

Пиковый уровень 100.0 %
Качество диапазона 100.0 %
CRC теста 881D643D
CRC копии 881D643D
Копирование... OK

Ошибок не произошло

AccurateRip: сводка

Трек 1 точное извлечение (доверие 1) [CC8B8441]
Трек 2 точное извлечение (доверие 1) [922B6CEA]
Трек 3 точное извлечение (доверие 1) [0DD9F256]
Трек 4 точное извлечение (доверие 1) [32C3357D]
Трек 5 точное извлечение (доверие 1) [97316849]
Трек 6 точное извлечение (доверие 1) [28F1B04B]
Трек 7 точное извлечение (доверие 1) [35623ED1]
Трек 8 точное извлечение (доверие 1) [9537C856]
Трек 9 точное извлечение (доверие 1) [C929A04A]
Трек 10 точное извлечение (доверие 1) [C961E3B0]
Трек 11 точное извлечение (доверие 1) [691D7D4D]
Трек 12 точное извлечение (доверие 1) [2967E5A9]

Все треки извлечены точно

Конец отчёта
pic
1. Intro [Punk Forever]
2. Я Люблю Свою Страну
3. FcDonalds
4. Борьба С Пустотой
5. Понты Дороже Денег
6. Свобода
7. Маленький Террор
8. Old Punk
9. Ты Так Хотела Стать
10. Они Хотят
11. Intro Off
12. Я - Настоящий Человек [hardcore remix by Toxigen] (Bonus Track)
Exact Audio Copy V0.99 prebeta 4 from 23. January 2008

Отчёт EAC об извлечении, выполненном 31. октября 2008, 15:01

Пурген / Destroy For Creation [2003. Мистерия Звука] [JN-014-2]

Дисковод: HL-DT-STDVDRAM GSA-H42L Adapter: 0 ID: 0

Режим чтения : Достоверность
Использование точного потока : Да
Отключение кэша аудио : Да
Использование указателей C2 : Нет

Коррекция смещения при чтении : 667
Способность читать области Lead-in и Lead-out : Нет
Заполнение пропущенных сэмплов тишиной : Да
Удаление блоков с тишиной в начале и конце : Нет
При вычислениях CRC использовались нулевые сэмплы : Да
Интерфейс : Встроенный Win32-интерфейс для Win NT/2000

Выходной формат : Внутренние WAV-операции
Формат сэмплов : 44.100 Гц; 16 бит; стерео

TOC извлечённого CD

Трек | Старт | Длительность | Начальный сектор | Конечный сектор
---------------------------------------------------------------------
1 | 0:00.00 | 2:21.24 | 0 | 10598
2 | 2:21.24 | 2:55.35 | 10599 | 23758
3 | 5:16.59 | 2:27.10 | 23759 | 34793
4 | 7:43.69 | 3:05.29 | 34794 | 48697
5 | 10:49.23 | 2:20.23 | 48698 | 59220
6 | 13:09.46 | 3:45.70 | 59221 | 76165
7 | 16:55.41 | 2:02.74 | 76166 | 85389
8 | 18:58.40 | 2:10.66 | 85390 | 95205
9 | 21:09.31 | 3:52.69 | 95206 | 112674
10 | 25:02.25 | 2:32.22 | 112675 | 124096
11 | 27:34.47 | 1:59.20 | 124097 | 133041
12 | 29:33.67 | 3:11.18 | 133042 | 147384
13 | 35:17.10 | 0:08.05 | 158785 | 159389

Характеристики диапазона извлечения и сообщения об ошибках

Выбранный диапазон

Имя файла C:\Пурген - Destroy For Creation [2003. Мистерия Звука] [JN-014-2].wav

Пиковый уровень 98.1 %
Качество диапазона 100.0 %
CRC теста B46B28D3
CRC копии B46B28D3
Копирование... OK

Ошибок не произошло

AccurateRip: сводка

Трек 1 нет в базе данных
Трек 2 нет в базе данных
Трек 3 нет в базе данных
Трек 4 нет в базе данных
Трек 5 нет в базе данных
Трек 6 нет в базе данных
Трек 7 нет в базе данных
Трек 8 нет в базе данных
Трек 9 нет в базе данных
Трек 10 нет в базе данных
Трек 11 нет в базе данных
Трек 12 нет в базе данных

Ни одного трека нет в базе AccurateRip

Конец отчёта
pic
1. Ангелы прогресса
2. Быстрый истребитель
3. 220 - не скорость
4. Давай хардкор
5. Бог цифровой индустрии
6. Выбор
7. Индустрия
8. Настоящий человек
9. 90-60-90
10. Атомная романтика
11. Не голосуй
12. Полет 400
13. Воздух
14. Строительная атака
15. Химия
16. Авто-погоня
17. Кибер
18. Туш
19. Массив
20. R.D.A.P.
21. Подводный мир 33
22. Боль андеграунда
23. Быстрый истребитель
24. Выбор
25. Фоторобот
Exact Audio Copy V0.99 prebeta 4 from 23. January 2008

Отчёт EAC об извлечении, выполненном 31. октября 2008, 16:51

Toxigen / Karmaoke. Remixes Purgen [2004. Мистерия Звука]

Дисковод: HL-DT-STDVDRAM GSA-H42L Adapter: 0 ID: 0

Режим чтения : Достоверность
Использование точного потока : Да
Отключение кэша аудио : Да
Использование указателей C2 : Нет

Коррекция смещения при чтении : 667
Способность читать области Lead-in и Lead-out : Нет
Заполнение пропущенных сэмплов тишиной : Да
Удаление блоков с тишиной в начале и конце : Нет
При вычислениях CRC использовались нулевые сэмплы : Да
Интерфейс : Встроенный Win32-интерфейс для Win NT/2000

Выходной формат : Внутренние WAV-операции
Формат сэмплов : 44.100 Гц; 16 бит; стерео

TOC извлечённого CD

Трек | Старт | Длительность | Начальный сектор | Конечный сектор
---------------------------------------------------------------------
1 | 0:00.00 | 3:33.10 | 0 | 15984
2 | 3:33.10 | 4:24.27 | 15985 | 35811
3 | 7:57.37 | 3:22.47 | 35812 | 51008
4 | 11:20.09 | 3:57.65 | 51009 | 68848
5 | 15:17.74 | 3:26.63 | 68849 | 84361
6 | 18:44.62 | 4:02.55 | 84362 | 102566
7 | 22:47.42 | 3:28.01 | 102567 | 118167
8 | 26:15.43 | 3:09.49 | 118168 | 132391
9 | 29:25.17 | 3:19.63 | 132392 | 147379
10 | 32:45.05 | 3:52.74 | 147380 | 164853
11 | 36:38.04 | 4:09.55 | 164854 | 183583
12 | 40:47.59 | 3:17.25 | 183584 | 198383
13 | 44:05.09 | 2:05.14 | 198384 | 207772
14 | 46:10.23 | 1:41.67 | 207773 | 215414
15 | 47:52.15 | 3:55.70 | 215415 | 233109
16 | 51:48.10 | 1:52.24 | 233110 | 241533
17 | 53:40.34 | 1:33.12 | 241534 | 248520
18 | 55:13.46 | 1:05.16 | 248521 | 253411
19 | 56:18.62 | 1:57.59 | 253412 | 262245
20 | 58:16.46 | 2:40.57 | 262246 | 274302
21 | 60:57.28 | 6:07.42 | 274303 | 301869
22 | 67:04.70 | 1:46.74 | 301870 | 309893
23 | 71:23.69 | 6:22.42 | 321294 | 349985

Характеристики диапазона извлечения и сообщения об ошибках

Выбранный диапазон

Имя файла C:\Toxigen - Karmaoke. Remixes Purgen [2004. Мистерия Звука].wav

Пиковый уровень 98.1 %
Качество диапазона 99.9 %
CRC теста 83CDEB3B
CRC копии 83CDEB3B
Копирование... OK

Ошибок не произошло

AccurateRip: сводка

Трек 1 нет в базе данных
Трек 2 нет в базе данных
Трек 3 нет в базе данных
Трек 4 нет в базе данных
Трек 5 нет в базе данных
Трек 6 нет в базе данных
Трек 7 нет в базе данных
Трек 8 нет в базе данных
Трек 9 нет в базе данных
Трек 10 нет в базе данных
Трек 11 нет в базе данных
Трек 12 нет в базе данных
Трек 13 нет в базе данных
Трек 14 нет в базе данных
Трек 15 нет в базе данных
Трек 16 нет в базе данных
Трек 17 нет в базе данных
Трек 18 нет в базе данных
Трек 19 нет в базе данных
Трек 20 нет в базе данных
Трек 21 нет в базе данных
Трек 22 нет в базе данных

Ни одного трека нет в базе AccurateRip

Конец отчёта
pic
1. Настоящий человек
2. Работэйшен = деградейшн
3. Колумбарий
4. Понты - дороже денег
5. Кристал Нахт
6. Индустрия смерти
7. Жизнь - это товар
8. 90-60-90
9. FcDonalds
10. Мегасити
11. Помойки из людей
12. Атомная романтика
13. Фоторобот
14. Негативные люди
15. Борьба с пустотой
16. Мертвые крысы
17. Ты так хотела стать...
18. Анархия
19. Любовь убивает
20. Философия
21. Повесься...
22. Не голосуй
23. Реинкарнация
Exact Audio Copy V0.99 prebeta 4 from 23. January 2008

Отчёт EAC об извлечении, выполненном 31. октября 2008, 14:41

Пурген / Протест Деталей Механизма [2004. Мистерия Звука] [JN-050-2]

Дисковод: HL-DT-STDVDRAM GSA-H42L Adapter: 0 ID: 0

Режим чтения : Достоверность
Использование точного потока : Да
Отключение кэша аудио : Да
Использование указателей C2 : Нет

Коррекция смещения при чтении : 667
Способность читать области Lead-in и Lead-out : Нет
Заполнение пропущенных сэмплов тишиной : Да
Удаление блоков с тишиной в начале и конце : Нет
При вычислениях CRC использовались нулевые сэмплы : Да
Интерфейс : Встроенный Win32-интерфейс для Win NT/2000

Выходной формат : Внутренние WAV-операции
Формат сэмплов : 44.100 Гц; 16 бит; стерео

TOC извлечённого CD

Трек | Старт | Длительность | Начальный сектор | Конечный сектор
---------------------------------------------------------------------
1 | 0:00.00 | 1:02.67 | 0 | 4716
2 | 1:02.67 | 2:28.28 | 4717 | 15844
3 | 3:31.20 | 1:24.51 | 15845 | 22195
4 | 4:55.71 | 2:11.23 | 22196 | 32043
5 | 7:07.19 | 2:50.72 | 32044 | 44865
6 | 9:58.16 | 2:17.33 | 44866 | 55173
7 | 12:15.49 | 1:41.24 | 55174 | 62772
8 | 13:56.73 | 2:19.16 | 62773 | 73213
9 | 16:16.14 | 2:06.73 | 73214 | 82736
10 | 18:23.12 | 3:05.34 | 82737 | 96645
11 | 21:28.46 | 2:50.64 | 96646 | 109459
12 | 24:19.35 | 1:53.00 | 109460 | 117934
13 | 26:12.35 | 1:34.63 | 117935 | 125047
14 | 27:47.23 | 1:52.74 | 125048 | 133521
15 | 29:40.22 | 3:17.18 | 133522 | 148314
16 | 32:57.40 | 3:33.44 | 148315 | 164333
17 | 36:31.09 | 3:15.29 | 164334 | 178987
18 | 39:46.38 | 2:05.46 | 178988 | 188408
19 | 41:52.09 | 2:15.69 | 188409 | 198602
20 | 44:08.03 | 3:01.12 | 198603 | 212189
21 | 47:09.15 | 2:36.64 | 212190 | 223953
22 | 49:46.04 | 1:59.74 | 223954 | 232952
23 | 51:46.03 | 3:22.58 | 232953 | 248160
24 | 57:40.61 | 0:06.56 | 259561 | 260066

Характеристики диапазона извлечения и сообщения об ошибках

Выбранный диапазон

Имя файла C:\Пурген - Протест Деталей Механизма [2004. Мистерия Звука] [JN-050-2].wav

Пиковый уровень 100.0 %
Качество диапазона 100.0 %
CRC теста 3F052E08
CRC копии 3F052E08
Копирование... OK

Ошибок не произошло

AccurateRip: сводка

Трек 1 нет в базе данных
Трек 2 нет в базе данных
Трек 3 нет в базе данных
Трек 4 нет в базе данных
Трек 5 нет в базе данных
Трек 6 нет в базе данных
Трек 7 нет в базе данных
Трек 8 нет в базе данных
Трек 9 нет в базе данных
Трек 10 нет в базе данных
Трек 11 нет в базе данных
Трек 12 нет в базе данных
Трек 13 нет в базе данных
Трек 14 нет в базе данных
Трек 15 нет в базе данных
Трек 16 нет в базе данных
Трек 17 нет в базе данных
Трек 18 нет в базе данных
Трек 19 нет в базе данных
Трек 20 нет в базе данных
Трек 21 нет в базе данных
Трек 22 нет в базе данных
Трек 23 нет в базе данных

Ни одного трека нет в базе AccurateRip

Конец отчёта
pic
1. Пурген - Реинкарнация
2. Пурген - Прогресс Разрушения
3. Пурген - Это Не То,Что Я Думал
4. Пурген - Тело Человека
5. Пурген - Майданек
6. Пурген - Почему НЕ Я?
7. Mausoleum - Kristall Nascht
8. Ацетилен - Анархия
9. Veselый Rodger - Мегасити
10. Вибратор - Помойки Из Людей
11. F.P.G. - Работэйшен
12. Toxigen - Не Голосуй!(remix)
13. Distemper - Атомная Романтика
14. Танзилит - Негативные Люди
15. Гараж 104 - Борьба С Пустотой
16. Скороспился - Песенка Пивного Панка
17. ЖБДДБ - FcDonalds
18. Dj Goose - Индустрия Смерти
19. Эгрегор - Философия
20. Destroyers - Не Доверяй Военным
21. Коматоз - Жизнь - Это Товар
22. Kotter Kakke - Помойки Из Людей
23. Toxigen - Фоторобот (mp3 bonus)
24. Танзилит - Колумбарий (mp3 bonus)
25. Бритва - Майданек (mp3 bonus)
26. Mickey Dead Mouse - Анархия (mp3 bonus)
27. Пиницил - Почему Не Я? (mp3 bonus)
28. Tlusta Lusta - Это Не То, Что Я Думал (mp3 bonus)
29. Психостимулятор - Работэйшен (mp3 bonus)
30. Резонатор - Реинкарнация (mp3 bonus)
31. Нераскрытые Будни - Жизнь - Это Товар (mp3 bonus)
Exact Audio Copy V0.99 prebeta 4 from 23. January 2008

Отчёт EAC об извлечении, выполненном 5. мая 2009, 22:44

Various / 15 Years Of Pure Generation (A Tribute Of Purgen) [2005. Мистерия Звука & Jet Noise Records] [JN-062-2]

Дисковод: HL-DT-STDVDRAM GSA-H42L Adapter: 0 ID: 0

Режим чтения : Достоверность
Использование точного потока : Да
Отключение кэша аудио : Да
Использование указателей C2 : Нет

Коррекция смещения при чтении : 667
Способность читать области Lead-in и Lead-out : Нет
Заполнение пропущенных сэмплов тишиной : Да
Удаление блоков с тишиной в начале и конце : Нет
При вычислениях CRC использовались нулевые сэмплы : Да
Интерфейс : Встроенный Win32-интерфейс для Win NT/2000

Выходной формат : Внутренние WAV-операции
Формат сэмплов : 44.100 Гц; 16 бит; стерео

TOC извлечённого CD

Трек | Старт | Длительность | Начальный сектор | Конечный сектор
---------------------------------------------------------------------
1 | 0:00.00 | 3:18.39 | 0 | 14888
2 | 3:18.39 | 3:55.71 | 14889 | 32584
3 | 7:14.35 | 1:36.33 | 32585 | 39817
4 | 8:50.68 | 2:22.39 | 39818 | 50506
5 | 11:13.32 | 2:19.70 | 50507 | 61001
6 | 13:33.27 | 1:30.47 | 61002 | 67798
7 | 15:03.74 | 3:42.37 | 67799 | 84485
8 | 18:46.36 | 2:41.71 | 84486 | 96631
9 | 21:28.32 | 3:51.72 | 96632 | 114028
10 | 25:20.29 | 3:23.47 | 114029 | 129300
11 | 28:44.01 | 3:15.68 | 129301 | 143993
12 | 31:59.69 | 4:10.67 | 143994 | 162810
13 | 36:10.61 | 2:10.19 | 162811 | 172579
14 | 38:21.05 | 2:32.47 | 172580 | 184026
15 | 40:53.52 | 2:39.25 | 184027 | 195976
16 | 43:33.02 | 2:14.36 | 195977 | 206062
17 | 45:47.38 | 3:06.72 | 206063 | 220084
18 | 48:54.35 | 2:54.03 | 220085 | 233137
19 | 51:48.38 | 3:20.72 | 233138 | 248209
20 | 55:09.35 | 3:01.40 | 248210 | 261824
21 | 58:11.00 | 2:03.64 | 261825 | 271113
22 | 60:14.64 | 3:29.30 | 271114 | 286818
23 | 66:16.19 | 2:07.37 | 298219 | 307780

Характеристики диапазона извлечения и сообщения об ошибках

Выбранный диапазон

Имя файла E:\Various - 15 Years Of Pure Generation (A Tribute Of Purgen) [2005. Мистерия Звука & Jet Noise Records] [JN-062-2].wav

Пиковый уровень 100.0 %
Качество диапазона 100.0 %
CRC теста 9FDC4CC1
CRC копии 9FDC4CC1
Копирование... OK

Ошибок не произошло

Конец отчёта
pic
1. Реинкарнация
2. Австралопитеки идут
3. Зависимость
4. Moscow City
5. Гонки - моя жизнь
6. Алазавр
7. Душа
8. Робот-рай
9. Дождь
10. Добей родителей
11. Прогресс Разрушения
Exact Audio Copy V0.99 prebeta 4 from 23. January 2008

Отчёт EAC об извлечении, выполненном 20. мая 2009, 11:12

Пурген / Реинкарнация [2005. Мистерия Звука & Jet Noise Records] [JN-067-2]

Дисковод: HL-DT-STDVDRAM GSA-H42L Adapter: 0 ID: 0

Режим чтения : Достоверность
Использование точного потока : Да
Отключение кэша аудио : Да
Использование указателей C2 : Нет

Коррекция смещения при чтении : 667
Способность читать области Lead-in и Lead-out : Нет
Заполнение пропущенных сэмплов тишиной : Да
Удаление блоков с тишиной в начале и конце : Нет
При вычислениях CRC использовались нулевые сэмплы : Да
Интерфейс : Встроенный Win32-интерфейс для Win NT/2000

Выходной формат : Внутренние WAV-операции
Формат сэмплов : 44.100 Гц; 16 бит; стерео

TOC извлечённого CD

Трек | Старт | Длительность | Начальный сектор | Конечный сектор
---------------------------------------------------------------------
1 | 0:00.00 | 3:09.06 | 0 | 14180
2 | 3:09.06 | 4:32.37 | 14181 | 34617
3 | 7:41.43 | 2:55.60 | 34618 | 47802
4 | 10:37.28 | 3:04.49 | 47803 | 61651
5 | 13:42.02 | 3:01.05 | 61652 | 75231
6 | 16:43.07 | 3:33.25 | 75232 | 91231
7 | 20:16.32 | 2:48.49 | 91232 | 103880
8 | 23:05.06 | 3:00.23 | 103881 | 117403
9 | 26:05.29 | 3:48.30 | 117404 | 134533
10 | 29:53.59 | 4:00.23 | 134534 | 152556
11 | 33:54.07 | 4:06.61 | 152557 | 171067
12 | 40:32.68 | 0:08.17 | 182468 | 183084

Характеристики диапазона извлечения и сообщения об ошибках

Выбранный диапазон

Имя файла E:\Пурген - Реинкарнация [2005. Мистерия Звука & Jet Noise Records] [JN-067-2].wav

Пиковый уровень 94.8 %
Качество диапазона 100.0 %
CRC теста 9929D62C
CRC копии 9929D62C
Копирование... OK

Ошибок не произошло

AccurateRip: сводка

Трек 1 нет в базе данных
Трек 2 нет в базе данных
Трек 3 нет в базе данных
Трек 4 нет в базе данных
Трек 5 нет в базе данных
Трек 6 нет в базе данных
Трек 7 нет в базе данных
Трек 8 нет в базе данных
Трек 9 нет в базе данных
Трек 10 нет в базе данных
Трек 11 нет в базе данных

Ни одного трека нет в базе AccurateRip

Конец отчёта
pic
1. Серый бетон
2. Русская рулетка
3. Идти или стоять
4. Найдется круче
5. Свет за темнотой
6. Мы воздушные фильтры заводов
7. Разговор с самим собой
8. Деньги на цифровой ветер
9. Климат
10. Выбор
11. 220 не скорость


Exact Audio Copy V0.99 prebeta 4 from 23. January 2008

Отчёт EAC об извлечении, выполненном 20. апреля 2009, 19:07

Пурген / Трансформация Идеалов [2007. АиБ Records]

Дисковод: HL-DT-STDVDRAM GSA-H42L Adapter: 0 ID: 0

Режим чтения : Достоверность
Использование точного потока : Да
Отключение кэша аудио : Да
Использование указателей C2 : Нет

Коррекция смещения при чтении : 667
Способность читать области Lead-in и Lead-out : Нет
Заполнение пропущенных сэмплов тишиной : Да
Удаление блоков с тишиной в начале и конце : Нет
При вычислениях CRC использовались нулевые сэмплы : Да
Интерфейс : Встроенный Win32-интерфейс для Win NT/2000

Выходной формат : Внутренние WAV-операции
Формат сэмплов : 44.100 Гц; 16 бит; стерео

TOC извлечённого CD

Трек | Старт | Длительность | Начальный сектор | Конечный сектор
---------------------------------------------------------------------
1 | 0:00.00 | 2:27.64 | 0 | 11088
2 | 2:27.64 | 2:23.47 | 11089 | 21860
3 | 4:51.36 | 3:57.63 | 21861 | 39698
4 | 8:49.24 | 2:39.25 | 39699 | 51648
5 | 11:28.49 | 2:58.45 | 51649 | 65043
6 | 14:27.19 | 4:22.13 | 65044 | 84706
7 | 18:49.32 | 3:50.56 | 84707 | 102012
8 | 22:40.13 | 1:54.55 | 102013 | 110617
9 | 24:34.68 | 3:05.39 | 110618 | 124531
10 | 27:40.32 | 2:40.49 | 124532 | 136580
11 | 30:21.06 | 3:11.71 | 136581 | 150976

Характеристики диапазона извлечения и сообщения об ошибках

Выбранный диапазон

Имя файла C:\Пурген - Трансформация Идеалов [2007. АиБ Records].wav

Пиковый уровень 99.1 %
Качество диапазона 100.0 %
CRC теста 8789D1D5
CRC копии 8789D1D5
Копирование... OK

Ошибок не произошло

Конец отчёта
pic
1. Злые пастухи
2. Мозг в стразах
3. Я буду
4. Чугунный мозг
5. Свобода
6. Мечты ребенка
7. Киллер бракодел
8. Они хотят
9. Настоящий человек
10. Работейшен
11. Колумбарий
12. Серый бетон
13. Жизнь это товар
14. Анархия
15. Майданек
16. Это не то что я думал
17. Русская рулетка
18. Понты дороже денег
19. 90-60-90
20. Индустрия смерти
21. Фоторобот
22. Почему не я
23. Повесься, ты слаб
24. Кристал нахт
25. Гонки моя жизнь
26. Помойки из людей
27. Фильтры заводов
28. Факдональдс
29. Мертвые крысы
30. Борьба с пустотой
31. Философия
32. Не голосуй
Exact Audio Copy V0.99 prebeta 4 from 23. January 2008

Отчёт EAC об извлечении, выполненном 5. мая 2009, 20:59

Пурген / 30000 Лет Панк Хардкору [2008. АиБ Records]

Дисковод: HL-DT-STDVDRAM GSA-H42L Adapter: 0 ID: 0

Режим чтения : Достоверность
Использование точного потока : Да
Отключение кэша аудио : Да
Использование указателей C2 : Нет

Коррекция смещения при чтении : 667
Способность читать области Lead-in и Lead-out : Нет
Заполнение пропущенных сэмплов тишиной : Да
Удаление блоков с тишиной в начале и конце : Нет
При вычислениях CRC использовались нулевые сэмплы : Да
Интерфейс : Встроенный Win32-интерфейс для Win NT/2000

Выходной формат : Внутренние WAV-операции
Формат сэмплов : 44.100 Гц; 16 бит; стерео

TOC извлечённого CD

Трек | Старт | Длительность | Начальный сектор | Конечный сектор
---------------------------------------------------------------------
1 | 0:00.00 | 3:02.34 | 0 | 13683
2 | 3:02.34 | 2:37.04 | 13684 | 25462
3 | 5:39.38 | 1:59.50 | 25463 | 34437
4 | 7:39.13 | 2:33.00 | 34438 | 45912
5 | 10:12.13 | 3:55.21 | 45913 | 63558
6 | 14:07.34 | 2:46.57 | 63559 | 76065
7 | 16:54.16 | 3:12.70 | 76066 | 90535
8 | 20:07.11 | 2:38.27 | 90536 | 102412
9 | 22:45.38 | 1:30.26 | 102413 | 109188
10 | 24:15.64 | 2:20.32 | 109189 | 119720
11 | 26:36.21 | 1:34.45 | 119721 | 126815
12 | 28:10.66 | 2:20.11 | 126816 | 137326
13 | 30:31.02 | 1:37.40 | 137327 | 144641
14 | 32:08.42 | 2:08.00 | 144642 | 154241
15 | 34:16.42 | 2:00.68 | 154242 | 163309
16 | 36:17.35 | 1:29.24 | 163310 | 170008
17 | 37:46.59 | 2:17.63 | 170009 | 180346
18 | 40:04.47 | 2:11.53 | 180347 | 190224
19 | 42:16.25 | 2:19.41 | 190225 | 200690
20 | 44:35.66 | 2:21.47 | 200691 | 211312
21 | 46:57.38 | 1:40.19 | 211313 | 218831
22 | 48:37.57 | 1:29.36 | 218832 | 225542
23 | 50:07.18 | 2:36.08 | 225543 | 237250
24 | 52:43.26 | 2:56.23 | 237251 | 250473
25 | 55:39.49 | 2:58.45 | 250474 | 263868
26 | 58:38.19 | 2:59.46 | 263869 | 277339
27 | 61:37.65 | 3:59.28 | 277340 | 295292
28 | 65:37.18 | 1:39.72 | 295293 | 302789
29 | 67:17.15 | 3:21.37 | 302790 | 317901
30 | 70:38.52 | 3:01.00 | 317902 | 331476
31 | 73:39.52 | 2:48.64 | 331477 | 344140
32 | 76:28.41 | 2:12.40 | 344141 | 354080

Характеристики диапазона извлечения и сообщения об ошибках

Выбранный диапазон

Имя файла C:\Пурген - 30000 Лет Панк Хардкору [2008. АиБ Records].wav

Пиковый уровень 100.0 %
Качество диапазона 100.0 %
CRC теста C6028E64
CRC копии C6028E64
Копирование... OK

Ошибок не произошло

AccurateRip: сводка

Трек 1 нет в базе данных
Трек 2 нет в базе данных
Трек 3 нет в базе данных
Трек 4 нет в базе данных
Трек 5 нет в базе данных
Трек 6 нет в базе данных
Трек 7 нет в базе данных
Трек 8 нет в базе данных
Трек 9 нет в базе данных
Трек 10 нет в базе данных
Трек 11 нет в базе данных
Трек 12 нет в базе данных
Трек 13 нет в базе данных
Трек 14 нет в базе данных
Трек 15 нет в базе данных
Трек 16 нет в базе данных
Трек 17 нет в базе данных
Трек 18 нет в базе данных
Трек 19 нет в базе данных
Трек 20 нет в базе данных
Трек 21 нет в базе данных
Трек 22 нет в базе данных
Трек 23 нет в базе данных
Трек 24 нет в базе данных
Трек 25 нет в базе данных
Трек 26 нет в базе данных
Трек 27 нет в базе данных
Трек 28 нет в базе данных
Трек 29 нет в базе данных
Трек 30 нет в базе данных
Трек 31 нет в базе данных
Трек 32 нет в базе данных

Ни одного трека нет в базе AccurateRip

Конец отчёта
pic
1. Вступление
2. Мясо Для Рабов
3. Ты В Прошлой Жизни Был Коровой
4. Как Прекрасен Мир
5. Американский Глобализм
6. Русiя
7. Зло
8. Боги Спустились С Небес
9. Иерархия Богов
10. Мозг В Стразах
11. Злые Пастухи
12. Активная Жизнь
13. Транформент
14. Трагедия На Авиамоторной
15. Все Люди Чикатилы
16. Панк Эйфория
Exact Audio Copy V0.99 prebeta 4 from 23. January 2008

Отчёт EAC об извлечении, выполненном 17. октября 2010, 11:28

Пурген / Бог Рабов [2010. АиБ Records]

Дисковод: _NEC DVD_RW ND-3540A Adapter: 0 ID: 0

Режим чтения : Достоверность
Использование точного потока : Да
Отключение кэша аудио : Да
Использование указателей C2 : Нет

Коррекция смещения при чтении : 48
Способность читать области Lead-in и Lead-out : Нет
Заполнение пропущенных сэмплов тишиной : Да
Удаление блоков с тишиной в начале и конце : Нет
При вычислениях CRC использовались нулевые сэмплы : Да
Интерфейс : Установленный внешний ASPI-интерфейс

Выходной формат : Внутренние WAV-операции
Формат сэмплов : 44.100 Гц; 16 бит; стерео

TOC извлечённого CD

Трек | Старт | Длительность | Начальный сектор | Конечный сектор
---------------------------------------------------------------------
1 | 0:00.00 | 1:07.19 | 0 | 5043
2 | 1:07.19 | 3:13.07 | 5044 | 19525
3 | 4:20.26 | 3:50.34 | 19526 | 36809
4 | 8:10.60 | 3:10.04 | 36810 | 51063
5 | 11:20.64 | 5:06.48 | 51064 | 74061
6 | 16:27.37 | 4:32.43 | 74062 | 94504
7 | 21:00.05 | 0:34.11 | 94505 | 97065
8 | 21:34.16 | 3:56.40 | 97066 | 114805
9 | 25:30.56 | 2:47.72 | 114806 | 127402
10 | 28:18.53 | 2:12.61 | 127403 | 137363
11 | 30:31.39 | 2:54.69 | 137364 | 150482
12 | 33:26.33 | 2:44.51 | 150483 | 162833
13 | 36:11.09 | 3:10.32 | 162834 | 177115
14 | 39:21.41 | 5:01.30 | 177116 | 199720
15 | 44:22.71 | 4:03.01 | 199721 | 217946
16 | 48:25.72 | 3:13.10 | 217947 | 232431

Характеристики диапазона извлечения и сообщения об ошибках

Выбранный диапазон

Имя файла C:\Пурген - Бог Рабов [2010. АиБ Records].wav

Пиковый уровень 100.0 %
Качество диапазона 100.0 %
CRC теста D3B10800
CRC копии D3B10800
Копирование... OK

Ошибок не произошло

AccurateRip: сводка

Трек 1 нет в базе данных
Трек 2 нет в базе данных
Трек 3 нет в базе данных
Трек 4 нет в базе данных
Трек 5 нет в базе данных
Трек 6 нет в базе данных
Трек 7 нет в базе данных
Трек 8 нет в базе данных
Трек 9 нет в базе данных
Трек 10 нет в базе данных
Трек 11 нет в базе данных
Трек 12 нет в базе данных
Трек 13 нет в базе данных
Трек 14 нет в базе данных
Трек 15 нет в базе данных
Трек 16 нет в базе данных

Ни одного трека нет в базе AccurateRip

Конец отчёта

Этот торрент недоступен для скачивания без регистрации, однако доступен по публичной magnet-ссылке (источники с публичных трекеров). Перед использованием ссылки прочтите, пожалуйста Пользовательское соглашение, а также как можно дольше оставайтесь на раздаче! Для того, чтобы скачать сам торрент-файл (который видит больше источников), а также для того, чтобы поблагодарить релизера, вам необходимо зарегистрироваться. Если регистрироваться лень - вы можете также попробовать скачать релиз по нашим партнерским ссылкам ниже. Кроме того, зарегистрированным пользователям не показывается всплывающая реклама при скачивании.

[underverse.su].t25337.torrent
Трекер: Зарегистрирован   [ 23.03.2013 15:59 ]  

Статус: проверено (by Jimmy at 23.03.2013 16:00)
Поблагодарили: пока никто не поблагодарил...
Тип торрента: публичный - доступные источники с открытых трекеров: 
Размер: 5,17 GB (занимает 1,18 DVDR, для записи нужно 2 болванки DVDR/RW)
 
 

Яндекс.Метрика powered by Sphinx


В Н И М А Н И Е
Сайт не распространяет и не хранит электронные версии произведений, а лишь бесплатно и без коммерческой выгоды (не требуя взамен платы,
SMS и т.д.) предоставляет доступ к создаваемому пользователями каталогу ссылок на торрент-файлы, которые содержат только списки хеш-сумм.
Убедительная просьба с жалобами обращаться напрямую к пользователю, разместившему торрент файл.

Вверх