Loading...
Error

Как Я Встретил Вашу Маму / How I Met Your Mother / Сезон: 8 / Серии: 1-24 (24) (Памела Фрайман) [2012 г., комедия, мелодрама, WEB-DL 720p] AVO + Original

Статистика раздачи
Размер:  17,4 GB   |    Зарегистрирован:  5 лет 8 месяцев   |    Скачан:  3 раза

Полного источника не было: 1 год 7 месяцев

Сидов:  0  |  0 KB/s  ]   Личеров:  0  |  0 KB/s  ]

* - сиды/пиры с внешних источников

   
 
Автор Сообщение

Jimmy Пол:Муж

25-Мар-2013 16:22

Как Я Встретил Вашу Маму / How I Met Your Mother / Сезон: 8

Год выпуска: 2012
Жанр: комедия, мелодрама
Страна: США
Режиссер: Памела Фрайман
В ролях: Джош Рэднор, Джейсон Сигел, Коби Смолдерс, Нил Патрик Харрис, Элисон Хэннигэн и др.
Сюжет фильма:
«Как я встретил вашу маму» — комедия про Теда и про то, как он влюбился. Все неприятности начинаются с того, что лучший друг Теда, Маршалл, вдруг неожиданно сообщил, что он хочет сделать предложение своей давней подруге, Лили, воспитательнице детского сада. К тому времени Тед понимает, что ему нужно прилагать больше усилий, если он действительно надеется найти свою настоящую любовь. Помогает ему в этих поисках его друг Барни, убежденный холостяк, вечно со своим, иногда чересчур, мнением на все происходящее, со склонностью к костюмам и верным способом познакомиться с девушками. Когда Тед встречает Робин, он решает, что это любовь с первого взгляда, но у судьбы в запасе есть кое-что еще.

Качество видео: WEB-DL 720p
Продолжительность: ~00:21:38
Формат: mkv
Видео: MPEG-4 AVC (H.264), 1280x718, 4035 kbps
Аудио #1: русский, одноголосый закадровый [Кураж-Бамбей], AC3 5.1, 384 kbps
Аудио #2: английский, оригинал, AC3 5.1, 384 kbps
Субтитры #1: вшитые отключаемые, S_TEXT/UTF8, русский
Субтитры #2: вшитые отключаемые, S_TEXT/UTF8, английский

Код:

General
Complete name                    : F:\Видео\Сериалы\How.I.Met.Your.Mother.S08.720p.WEB-DL.Rus.Eng.HDCLUB\How.I.Met.Your.Mother.S08E01.720p.WEB-DL.Rus.Eng.HDCLUB.mkv
Format                           : Matroska
File size                        : 758 MiB
Duration                         : 21mn 38s
Overall bit rate                 : 4 901 Kbps
Movie name                       : How I Met Your Mother [Season 8] (2012) - Release for HDCLUB
Encoded date                     : UTC 2012-09-29 21:31:11
Writing application              : mkvmerge v5.8.0 ('No Sleep / Pillow') built on Sep  2 2012 15:37:04
Writing library                  : libebml v1.2.3 + libmatroska v1.3.0

Video
ID                               : 1
Format                           : AVC
Format/Info                      : Advanced Video Codec
Format profile                   : High@L3.1
Format settings, CABAC           : No
Format settings, ReFrames        : 2 frames
Muxing mode                      : Container profile=Unknown@3.1
Codec ID                         : V_MPEG4/ISO/AVC
Duration                         : 21mn 36s
Bit rate                         : 4 035 Kbps
Width                            : 1 280 pixels
Height                           : 718 pixels
Display aspect ratio             : 16/9
Frame rate                       : 23.976 fps
Resolution                       : 24 bits
Colorimetry                      : 4:2:0
Scan type                        : Progressive
Bits/(Pixel*Frame)               : 0.183
Stream size                      : 624 MiB (82%)
Title                            : How I Met Your Mother 8x01: Farhampton / Фархэмптон - Release for HDCLUB

Audio #1
ID                               : 2
Format                           : AC-3
Format/Info                      : Audio Coding 3
Codec ID                         : A_AC3
Duration                         : 21mn 38s
Bit rate mode                    : Constant
Bit rate                         : 384 Kbps
Channel(s)                       : 6 channels
Channel positions                : Front: L C R, Surround: L R, LFE
Sampling rate                    : 48.0 KHz
Stream size                      : 59.4 MiB (8%)
Language                         : Russian

Audio #2
ID                               : 3
Format                           : AC-3
Format/Info                      : Audio Coding 3
Codec ID                         : A_AC3
Duration                         : 21mn 38s
Bit rate mode                    : Constant
Bit rate                         : 384 Kbps
Channel(s)                       : 6 channels
Channel positions                : Front: L C R, Surround: L R, LFE
Sampling rate                    : 48.0 KHz
Stream size                      : 59.4 MiB (8%)

Text #1
ID                               : 4
Format                           : UTF-8
Codec ID                         : S_TEXT/UTF8
Codec ID/Info                    : UTF-8 Plain Text
Language                         : Russian

Text #2
ID                               : 5
Format                           : UTF-8
Codec ID                         : S_TEXT/UTF8
Codec ID/Info                    : UTF-8 Plain Text


pic pic pic
Для увеличения картинки щелкните мышкой по превью

Этот торрент недоступен для скачивания без регистрации, однако доступен по публичной magnet-ссылке (источники с публичных трекеров). Перед использованием ссылки прочтите, пожалуйста Пользовательское соглашение, а также как можно дольше оставайтесь на раздаче! Для того, чтобы скачать сам торрент-файл (который видит больше источников), а также для того, чтобы поблагодарить релизера, вам необходимо зарегистрироваться. Если регистрироваться лень - вы можете также попробовать скачать релиз по нашим партнерским ссылкам ниже. Кроме того, зарегистрированным пользователям не показывается всплывающая реклама при скачивании.

[underverse.su].t25405.torrent
Трекер: Зарегистрирован   [ 25.05.2013 05:13 ]  

Статус: проверено (by Jimmy at 25.05.2013 05:13)
Поблагодарили: пока никто не поблагодарил...
Тип торрента: публичный - доступные источники с открытых трекеров: 
Размер: 17,4 GB (занимает 3,98 DVDR, для записи нужно 4 болванки DVDR/RW)
 
 
Похожие темы
Форум Тема Автор Торрент Отв. Посл. сооб.
Зарубежные сериалы Как Я Встретил Вашу Маму / How I Met Your Mother / Сезон: 9 / Серии: 1-24 из 24 (Памела Фрайман, Роб Гринберг, Майкл Ши) [2013, комедия, мелодрама, WEB-DLRip] VO (Кураж-Бамбей) Jimmy
53 | 3

1 | 9738

5

07.04.2014 14:32

Зарубежные сериалы Как я встретил вашу маму / How I Met Your Mother / Сезоны 1-9 / (Памела Фрайман, Роб Гринберг) [2005-2014, комедия, мелодрама, WEB-DLRip] VO (Кураж-Бамбей) Jimmy
51 | 19

0 | 1940

9

09.04.2014 17:05

Архив (Сериалы) Как я встретил вашу маму / How I Met Your Mother (Сезон 1 / 1-22) (Картер Бейс) [2005 г., комедия, HDTVRip] Кураж-Бамбей ihtiya
0 | 0

6 | 963

0

31.01.2018 16:56

Архив (Сериалы) Как Я Встретил Вашу Маму / How I Met Your Mother / Сезоны 2-6 [2007-2011, Ситком, HDTVRip] ihtiya
0 | 0

2 | 1084

0

31.01.2018 16:56

Jimmy Пол:Муж

25-Май-2013 05:13

Раздача обновлена! Сезон добавлен полностью! Приятного просмотра!

Яндекс.Метрика powered by Sphinx


В Н И М А Н И Е
Сайт не распространяет и не хранит электронные версии произведений, а лишь бесплатно и без коммерческой выгоды (не требуя взамен платы,
SMS и т.д.) предоставляет доступ к создаваемому пользователями каталогу ссылок на торрент-файлы, которые содержат только списки хеш-сумм.
Убедительная просьба с жалобами обращаться напрямую к пользователю, разместившему торрент файл.

Вверх