Loading...
Error

(Trip Hop, Downtempo) Terranova - Just Enough (Single) (1999) [FLAC (Tracks+.CUE) lossless]

Статистика раздачи
Размер:  145 MB   |    Зарегистрирован:  5 лет 4 месяца   |    Скачан:  3 раза

Полного источника не было: 6 месяцев

Сидов:  0  |  0 KB/s  ]   Личеров:  0  |  0 KB/s  ]

* - сиды/пиры с внешних источников

   
 
Автор Сообщение

8ad_R060d Пол:Муж

01-Июн-2013 13:24

Terranova - Just Enough (Single)

Жанр: Trip Hop, Downtempo
Год издания: 1999
Производитель диска: Copasetik Recordings COPA 014X
Аудиокодек: FLAC
Тип рипа: Tracks+.CUE
Битрейт аудио: lossless
Продолжительность: 00:16:43

Треклист:

01. Just Enough (Video Version)
02. Just Enough (Stereo Mc's Roughcut RMX)
Remix - Stereo MC's
03. Just Enough (Stereo Mc's Uncut RMX)
Remix - Stereo MC's

Exact Audio Copy V0.99 prebeta 4 from 23. January 2008

EAC extraction logfile from 27. February 2010, 20:00

Terranova / Just Enough [CDS]

Used drive : Optiarc DVD RW AD-5240S Adapter: 3 ID: 0

Read mode : Secure
Utilize accurate stream : Yes
Defeat audio cache : Yes
Make use of C2 pointers : No

Read offset correction : 48
Overread into Lead-In and Lead-Out : No
Fill up missing offset samples with silence : Yes
Delete leading and trailing silent blocks : No
Null samples used in CRC calculations : Yes
Used interface : Installed external ASPI interface
Gap handling : Appended to previous track

Used output format : Internal WAV Routines
Sample format : 44.100 Hz; 16 Bit; Stereo

TOC of the extracted CD

Track | Start | Length | Start sector | End sector
---------------------------------------------------------
1 | 0:00.00 | 3:54.12 | 0 | 17561
2 | 3:54.12 | 4:28.06 | 17562 | 37667
3 | 8:22.18 | 8:21.26 | 37668 | 75268

Track 1

Filename G:\AccurateRip\01 - Terranova - Just Enough (Video Version)-eMzk.wav

Pre-gap length 0:00:02.00

Peak level 89.1 %
Track quality 100.0 %
Test CRC 2DAEFB79
Copy CRC 2DAEFB79
Track not present in AccurateRip database
Copy OK

Track 2

Filename G:\AccurateRip\02 - Terranova - Just Enough (Stereo Mcґs Roughcut Rmx)-eMzk.wav

Pre-gap length 0:00:01.45

Peak level 100.0 %
Track quality 100.0 %
Test CRC 5E3C3213
Copy CRC 5E3C3213
Track not present in AccurateRip database
Copy OK

Track 3

Filename G:\AccurateRip\03 - Terranova - Just Enough (Stereo Mcґs Uncut Rmx)-eMzk.wav

Peak level 100.0 %
Track quality 100.0 %
Test CRC 20818001
Copy CRC 20818001
Track not present in AccurateRip database
Copy OK

None of the tracks are present in the AccurateRip database

No errors occurred

End of status report
REM ACCURATERIPID 0001fdc3-0006dab5-1603eb03
REM GENRE Trip-Hop
REM DATE 1999
REM DISCID 1603EB03
REM COMMENT "ExactAudioCopy v0.99pb4"
PERFORMER "Terranova"
TITLE "Just Enough [CDS]"
FILE "01 - Terranova - Just Enough (Video Version)-eMzk.flac" WAVE
TRACK 01 AUDIO
TITLE "Just Enough (Video Version)"
PERFORMER "Terranova"
INDEX 01 00:00:00
TRACK 02 AUDIO
TITLE "Just Enough (Stereo Mcґs Roughcut Rmx)"
PERFORMER "Terranova"
INDEX 00 03:52:42
FILE "02 - Terranova - Just Enough (Stereo Mcґs Roughcut Rmx)-eMzk.flac" WAVE
INDEX 01 00:00:00
FILE "03 - Terranova - Just Enough (Stereo Mcґs Uncut Rmx)-eMzk.flac" WAVE
TRACK 03 AUDIO
TITLE "Just Enough (Stereo Mcґs Uncut Rmx)"
PERFORMER "Terranova"
INDEX 01 00:00:00

Варнинг!! Эту страницу собирали и редактировали роботы. Они могли случайно прикрутить ошибки, неточности и другие глупости.

Этот торрент недоступен для скачивания без регистрации, однако доступен по публичной magnet-ссылке (источники с публичных трекеров). Перед использованием ссылки прочтите, пожалуйста Пользовательское соглашение, а также как можно дольше оставайтесь на раздаче! Для того, чтобы скачать сам торрент-файл (который видит больше источников), а также для того, чтобы поблагодарить релизера, вам необходимо зарегистрироваться. Если регистрироваться лень - вы можете также попробовать скачать релиз по нашим партнерским ссылкам ниже. Кроме того, зарегистрированным пользователям не показывается всплывающая реклама при скачивании.

[underverse.su].t28062.torrent
Трекер: Зарегистрирован   [ 01.06.2013 13:24 ]  

Статус: проверено (by Бишеп at 01.06.2013 17:46)
Поблагодарили: 1 человек
Тип торрента: публичный - доступные источники с открытых трекеров: 
Размер: 145 MB (занимает 0,03 DVDR, для записи нужно 1 болванка DVDR/RW)
 
 
Похожие темы
Форум Тема Автор Торрент Отв. Посл. сооб.
Зарубежная Pop Музыка (Trip Hop, Pop, Indie) Lunik - Encore (2CD) (2013) [MP3, 320 kbps] 90ytr90
0 | 0

0 | 708

2

02.12.2016 15:47

Trip Hop, Abstract Hip Hop (Trip Hop, Electronic) Kosheen - Independence (2012) [MP3, 320 kbps] ZondeR
22 | 3

0 | 2007

14

27.09.2012 06:45

Trip Hop, Abstract Hip Hop (Trip Hop, Downtempo, Chillout) The Atomica Project - The Non Affair (2010) [MP3, 320 kbps CBR] ost
0 | 0

0 | 1060

2

17.06.2014 17:28

Trip Hop, Abstract Hip Hop (Trip Hop, Indie Pop, Electronic) Jay-Jay Johanson - You'll Miss Me When I'm Gone [EP] (2017) [MP3, 320 kbps CBR] Darkferse
5 | 0

0 | 841

4

05.05.2017 07:56

Trip Hop, Abstract Hip Hop (Trip Hop, Downtempo, Lo-Fi) Malgrin – Calm Down (2015) [MP3, 320 kbps CBR] 8ad_R060d
1 | 0

0 | 1423

5

09.05.2015 17:35

Trip Hop, Abstract Hip Hop (Trip Hop, Electronic) Sevdaliza - Ison (2017) [MP3, 320 kbps CBR] Darkferse
17 | 8

0 | 1429

8

26.04.2017 11:46

Trip Hop, Abstract Hip Hop (Trip Hop, Female Vocal, Alternative) Elsiane - Death of the Artist (2017) [MP3, 320 kbps CBR] Darkferse
0 | 0

0 | 860

3

26.04.2017 11:53

Trip Hop, Abstract Hip Hop (Trip Hop, Glitch Hop, Neo-Soul) Boogrov - Define (2017) [MP3, 320 kbps CBR] Darkferse
2 | 0

0 | 923

2

27.04.2017 15:34

Trip Hop, Abstract Hip Hop (Trip Hop, Indie, Experimental) Son Lux - Collection (2008-2017) [MP3, 320 kbps CBR] Darkferse
11 | 6

0 | 1327

3

13.05.2017 18:50

Trip Hop, Abstract Hip Hop (Trip Hop, Electronic) UNKLE - The Road Part 1 (2017) [MP3, 320 kbps CBR] Darkferse
1 | 0

0 | 1133

2

24.06.2017 19:52


Яндекс.Метрика powered by Sphinx


В Н И М А Н И Е
Сайт не распространяет и не хранит электронные версии произведений, а лишь бесплатно и без коммерческой выгоды (не требуя взамен платы,
SMS и т.д.) предоставляет доступ к создаваемому пользователями каталогу ссылок на торрент-файлы, которые содержат только списки хеш-сумм.
Убедительная просьба с жалобами обращаться напрямую к пользователю, разместившему торрент файл.

Вверх