Loading...
Error

(Electronic, Trip Hop, Downtempo) All India Radio - Echo Other (2006) [FLAC (Image+.CUE), lossless]

Статистика раздачи
Размер:  252 MB   |    Зарегистрирован:  5 лет 7 месяцев   |    Скачан:  5 раз

Полного источника не было: 10 дней

Сидов:  0  |  0 KB/s  ]   Личеров:  0  |  0 KB/s  ]

* - сиды/пиры с внешних источников

   
 
Автор Сообщение

8ad_R060d Пол:Муж

03-Июн-2013 06:33

All India Radio - Echo Other

Жанр: Electronic, Trip Hop, Downtempo
Год выпуска: 2006
Производитель диска: Minty Fresh ‎– MF 71
Аудиокодек: FLAC
Тип рипа: Image+.CUE
Битрейт аудио: lossless
Продолжительность: 00:41:10

Треклист:

01. Tropic Of Unicorn
02. Four Three
03. The Time
04. Sunshine Briefly
05. Elizabethland
06. The Quiet Ambient
07. Song of the see
08. Mexicola
09. Ghost Dirt
10. Whistle
11. Echo Other
12. Endless Highway

Exact Audio Copy V0.99 prebeta 4 from 23. January 2008

EAC extraction logfile from 31. May 2008, 14:40

All India Radio / Echo Other

Used drive : PIONEER DVD-RW DVR-112D Adapter: 3 ID: 0

Read mode : Secure
Utilize accurate stream : Yes
Defeat audio cache : Yes
Make use of C2 pointers : No

Read offset correction : 48
Overread into Lead-In and Lead-Out : No
Fill up missing offset samples with silence : Yes
Delete leading and trailing silent blocks : No
Null samples used in CRC calculations : Yes
Used interface : Installed external ASPI interface

Used output format : User Defined Encoder
Selected bitrate : 192 kBit/s
Quality : Low
Add ID3 tag : Yes
Command line compressor : C:\Program Files\E A C Audio\Flac\flac.exe
Additional command line options : -V -8 -T "artist=%a" -T "title=%t" -T "album=%g" -T "date=%y" -T "tracknumber=%n" -T "genre=%m" %s
Use compression offset : 0

TOC of the extracted CD

Track | Start | Length | Start sector | End sector
---------------------------------------------------------
1 | 0:00.00 | 1:56.22 | 0 | 8721
2 | 1:56.22 | 4:02.30 | 8722 | 26901
3 | 5:58.52 | 3:54.28 | 26902 | 44479
4 | 9:53.05 | 2:03.47 | 44480 | 53751
5 | 11:56.52 | 1:33.38 | 53752 | 60764
6 | 13:30.15 | 4:18.00 | 60765 | 80114
7 | 17:48.15 | 3:36.55 | 80115 | 96369
8 | 21:24.70 | 5:25.40 | 96370 | 120784
9 | 26:50.35 | 3:37.62 | 120785 | 137121
10 | 30:28.22 | 3:51.50 | 137122 | 154496
11 | 34:19.72 | 5:32.25 | 154497 | 179421
12 | 39:52.22 | 5:19.63 | 179422 | 203409

Range status and errors

Selected range

Filename G:\lossless-room.nnm.ru\All India Radio - Echo Other\All India Radio - Echo Other.wav

Peak level 100.0 %
Range quality 100.0 %
Test CRC 7FD00B83
Copy CRC 7FD00B83
Copy OK

No errors occurred

AccurateRip summary

Track 1 accurately ripped (confidence 3) [77479059]
Track 2 accurately ripped (confidence 3) [8C77EF5F]
Track 3 accurately ripped (confidence 3) [0C0E9DE3]
Track 4 accurately ripped (confidence 3) [914AAD7F]
Track 5 accurately ripped (confidence 3) [B0B7191F]
Track 6 accurately ripped (confidence 3) [D4DEDBB5]
Track 7 accurately ripped (confidence 3) [B1DCCA9A]
Track 8 accurately ripped (confidence 3) [68E23B27]
Track 9 accurately ripped (confidence 3) [6550B3E1]
Track 10 accurately ripped (confidence 3) [44821B5C]
Track 11 accurately ripped (confidence 3) [5C414698]
Track 12 accurately ripped (confidence 3) [6688B3E2]

All tracks accurately ripped

End of status report

Этот торрент недоступен для скачивания без регистрации, однако доступен по публичной magnet-ссылке (источники с публичных трекеров). Перед использованием ссылки прочтите, пожалуйста Пользовательское соглашение, а также как можно дольше оставайтесь на раздаче! Для того, чтобы скачать сам торрент-файл (который видит больше источников), а также для того, чтобы поблагодарить релизера, вам необходимо зарегистрироваться. Если регистрироваться лень - вы можете также попробовать скачать релиз по нашим партнерским ссылкам ниже. Кроме того, зарегистрированным пользователям не показывается всплывающая реклама при скачивании.

[underverse.su].t28098.torrent
Трекер: Зарегистрирован   [ 03.06.2013 06:33 ]  

Статус: проверено (by Бишеп at 03.06.2013 06:42)
Поблагодарили: 1 человек
Тип торрента: публичный - доступные источники с открытых трекеров: 
Размер: 252 MB (занимает 0,06 DVDR, для записи нужно 1 болванка DVDR/RW)
 
 
Похожие темы
Форум Тема Автор Торрент Отв. Посл. сооб.
Музыкальные DVD (Electronic) Jean Michel Jare - Aero (2004) [DVD-Audio, 5.1 DTS, 5.1 Dolby Digital (2.0-совместимый даунмикс)] 8ad_R060d
10 | 1

0 | 3011

32

19.03.2014 14:24

Зарубежная Pop Музыка (Electronic, Pop) Marian Hill - ACT ONE (The Complete Collection) (2017) [MP3, 320 kbps CBR] Darkferse
7 | 0

1 | 1269

7

31.05.2017 13:55

Зарубежная Pop Музыка (Electronic, House, Dance, Pop) Madonna - Bitch I'm Madonna (The Remixes) (2015) [MP3, 320 kbps] 90ytr90
3 | 0

0 | 750

2

08.11.2016 07:41

Зарубежная Pop Музыка (Electronic, Synth-pop) a-ha - Cast In Steel [Vinyl Rip] (2015) [MP3, 320 kbps] 90ytr90
6 | 0

0 | 813

2

06.11.2016 12:26

Зарубежная Pop Музыка (Electronic, Pop, Dance) The Knocks - 55 (2016) [MP3, 320 kbps] 90ytr90
0 | 0

0 | 690

3

06.11.2016 10:41

Зарубежная Pop Музыка (Electronic Rock, Pop) Porcelain Black - Mannequin Factory (2015) [MP3, 320 kbps] 90ytr90
5 | 0

0 | 1270

11

11.03.2015 20:43

Зарубежная Pop Музыка (Electronic, Indie Pop) Sia - The Spotify Sessions [EP] (2017) [MP3, 320 kbps CBR] 90ytr90
22 | 1

0 | 614

6

08.04.2018 07:08

Зарубежная Pop Музыка (Electronic, House, Techno) Moby - Go-the very best of Moby (Japan) (2006) [MP3, 320 kbps CBR] 90ytr90
14 | 2

0 | 659

9

08.04.2018 10:44

Зарубежная Pop Музыка (Electronic, Dance, Alternative, Pop) Tracey Thorn - Record (2018) [MP3, 320 kbps CBR] 90ytr90
17 | 9

0 | 526

5

08.04.2018 13:05

Зарубежная Pop Музыка (Electronic, Synthpop) a-ha - MTV Unplugged: Summer Solstice (2017) [MP3, 320 kbps CBR] 90ytr90
13 | 5

0 | 717

8

08.04.2018 14:22


Яндекс.Метрика powered by Sphinx


В Н И М А Н И Е
Сайт не распространяет и не хранит электронные версии произведений, а лишь бесплатно и без коммерческой выгоды (не требуя взамен платы,
SMS и т.д.) предоставляет доступ к создаваемому пользователями каталогу ссылок на торрент-файлы, которые содержат только списки хеш-сумм.
Убедительная просьба с жалобами обращаться напрямую к пользователю, разместившему торрент файл.

Вверх