Loading...
Error

(Punk Rock) Сектор газа - Ядрёна вошь (1994) [FLAC (Image+.CUE), Lossless]

Статистика раздачи
Размер:  278 MB   |    Зарегистрирован:  5 лет 1 месяц   |    Скачан:  5 раз

Полного источника не было: 1 час 12 минут

Сидов:  0  |  0 KB/s  ]   Личеров:  0  |  0 KB/s  ]

* - сиды/пиры с внешних источников

   
 
Автор Сообщение

Бишеп Пол:Муж

10-Июл-2013 05:29

Сектор газа - Ядрёна вошь

Жанр: Punk Rock
Год выпуска: 1994
Производитель диска: S.B.A. Records GLCD 05946
Аудиокодек: FLAC
Тип рипа: Image+.CUE
Битрейт аудио: Lossless
Продолжительность: 00:44:14
Треклист:
01. Мы - совковские ребята
02. Скотник
03. Носки
04. Импотент
05. Ядрена вошь
06. Мент
07. Колыбельная
08. План
09. Спор
10. Караван
11. Пердун
12. Вечером на лавочке
13. Возле дома твоего
14. Минет


Exact Audio Copy V1.0 beta 3 from 29. August 2011

Отчёт EAC об извлечении, выполненном 8. июля 2013, 11:49

Сектор газа / Ядрёна вошь

Дисковод: HL-DT-STDVDRAM GSA-T10N Adapter: 0 ID: 0

Режим чтения : Достоверность
Использование точного потока : Да
Отключение кэша аудио : Да
Использование указателей C2 : Нет

Коррекция смещения при чтении : 667
Способность читать области Lead-in и Lead-out : Нет
Заполнение пропущенных сэмплов тишиной : Да
Удаление блоков с тишиной в начале и конце : Нет
При вычислениях CRC использовались нулевые сэмплы : Да
Интерфейс : Установленный внешний ASPI-интерфейс

Выходной формат : Пользовательский кодировщик
Выбранный битрейт : 1024 kBit/s
Качество : Высокий
Добавление ID3-тега : Нет
Утилита сжатия : D:\Program Files\Exact Audio Copy\FLAC\FLAC.EXE
Дополнительные параметры : -V -8 -T "Date=%year%" -T "Genre=%genre%" %source%

TOC извлечённого CD

Трек | Старт | Длительность | Начальный сектор | Конечный сектор
---------------------------------------------------------------------
1 | 0:00.37 | 0:23.48 | 37 | 1809
2 | 0:24.10 | 2:58.25 | 1810 | 15184
3 | 3:22.35 | 2:46.57 | 15185 | 27691
4 | 6:09.17 | 3:34.48 | 27692 | 43789
5 | 9:43.65 | 3:47.57 | 43790 | 60871
6 | 13:31.47 | 2:25.13 | 60872 | 71759
7 | 15:56.60 | 2:29.12 | 71760 | 82946
8 | 18:25.72 | 3:22.25 | 82947 | 98121
9 | 21:48.22 | 4:25.63 | 98122 | 118059
10 | 26:14.10 | 4:35.50 | 118060 | 138734
11 | 30:49.60 | 2:41.20 | 138735 | 150829
12 | 33:31.05 | 4:06.52 | 150830 | 169331
13 | 37:37.57 | 3:05.43 | 169332 | 183249
14 | 40:43.25 | 3:30.37 | 183250 | 199036

Характеристики диапазона извлечения и сообщения об ошибках

Выбранный диапазон

Имя файла D:\Desktop\Сектор газа - Ядрёна вошь.wav

Пиковый уровень 100.0 %
Скорость извлечения 3.5 X
Качество диапазона 100.0 %
CRC теста D442E22B
CRC копии D442E22B
Копирование... OK

Ошибок не произошло

AccurateRip: сводка
Трек 1 отсутствует в базе данных
Трек 2 отсутствует в базе данных
Трек 3 отсутствует в базе данных
Трек 4 отсутствует в базе данных
Трек 5 отсутствует в базе данных
Трек 6 отсутствует в базе данных
Трек 7 отсутствует в базе данных
Трек 8 отсутствует в базе данных
Трек 9 отсутствует в базе данных
Трек 10 отсутствует в базе данных
Трек 11 отсутствует в базе данных
Трек 12 отсутствует в базе данных
Трек 13 отсутствует в базе данных
Трек 14 отсутствует в базе данных
Ни одного трека нет в базе AccurateRip

Конец отчёта

==== Контрольная сумма отчёта EF1056D8BAC9468F175DD523EB51EAEC7A39E0F876B7336775C5D89E8B368F91 ====

pic
Для увеличения картинки щелкните мышкой по превью

Собственный рип снят в режиме Test&Copy

Этот торрент недоступен для скачивания без регистрации, однако доступен по публичной magnet-ссылке (источники с публичных трекеров). Перед использованием ссылки прочтите, пожалуйста Пользовательское соглашение, а также как можно дольше оставайтесь на раздаче! Для того, чтобы скачать сам торрент-файл (который видит больше источников), а также для того, чтобы поблагодарить релизера, вам необходимо зарегистрироваться. Если регистрироваться лень - вы можете также попробовать скачать релиз по нашим партнерским ссылкам ниже. Кроме того, зарегистрированным пользователям не показывается всплывающая реклама при скачивании.

[underverse.su].t29080.torrent
Трекер: Зарегистрирован   [ 10.07.2013 05:29 ]  

Статус: проверено (by Бишеп at 10.07.2013 05:45)
Поблагодарили: пока никто не поблагодарил...
Тип торрента: публичный - доступные источники с открытых трекеров: 
Размер: 278 MB (занимает 0,06 DVDR, для записи нужно 1 болванка DVDR/RW)
 
 
Похожие темы
Форум Тема Автор Торрент Отв. Посл. сооб.
Зарубежный Punk, Hardcore, Grunge, Alternative (Punk Rock/Street Punk) BRDigung - In Goldenen Ketten (2014) [MP3, 320 kbps] Jimmy
1 | 0

0 | 1098

4

23.04.2014 16:00

Зарубежный Punk, Hardcore, Grunge, Alternative (Punk Rock/Heavy Punk) Desakato - Buen Viaje (2014) [MP3, 320 kbps] Jimmy
1 | 0

0 | 818

5

23.04.2014 15:53

Зарубежный Punk, Hardcore, Grunge, Alternative (Punk Rock) Richie Ramone - Entitled [ex-Ramones] (2013) [MP3, 320 kbps] Jimmy
1 | 1

0 | 2070

2

21.12.2013 08:03

Зарубежный Punk, Hardcore, Grunge, Alternative (Punk Rock/Old School Pop Punk) The Bugs - 2 альбома (The Bugs/Missile To The Middle East) (2008/2013) [MP3, 320 kbps] Jimmy
0 | 0

0 | 2156

0

21.12.2013 08:06

Зарубежный Punk, Hardcore, Grunge, Alternative (Punk Rock) The So So Glos - Blowout (2013) [MP3, 320 kbps] Jimmy
1 | 0

0 | 1855

1

04.01.2014 10:17

Зарубежный Punk, Hardcore, Grunge, Alternative (Punk Rock | Melodic Hardcore) Noopinion - No Chains For Change (2013) [MP3, 320 kbps] Jimmy
1 | 0

0 | 1801

2

04.01.2014 14:20

Зарубежный Punk, Hardcore, Grunge, Alternative (Punk Rock) Stiff Little Fingers - No Going Back (2014) [MP3, 320 kbps] Jimmy
0 | 7

0 | 1779

5

23.03.2014 05:20

Зарубежный Punk, Hardcore, Grunge, Alternative (Punk Rock, Skate Punk, Melodic Punk) Authority Zero - Broadcasting To The Nations (2017) [MP3, 320 kbps CBR] Darkferse
10 | 0

0 | 861

2

02.06.2017 15:14

Зарубежный Punk, Hardcore, Grunge, Alternative (Punk Rock, Reggae) Anti-Nowhere League - League Style (Loosen Up Volume 1) (2017) [MP3, 320 kbps CBR] Darkferse
2 | 0

0 | 477

1

05.06.2017 23:58

Зарубежный Punk, Hardcore, Grunge, Alternative (Punk Rock) Beatsteaks - YOURS (2017) [MP3, 320 kbps CBR] Darkferse
2 | 0

0 | 531

1

06.09.2017 10:18

Бишеп Пол:Муж

10-Июл-2013 05:45

Grigor.V Пол:Муж

22-Июн-2014 21:34

:good:

Яндекс.Метрика powered by Sphinx


В Н И М А Н И Е
Сайт не распространяет и не хранит электронные версии произведений, а лишь бесплатно и без коммерческой выгоды (не требуя взамен платы,
SMS и т.д.) предоставляет доступ к создаваемому пользователями каталогу ссылок на торрент-файлы, которые содержат только списки хеш-сумм.
Убедительная просьба с жалобами обращаться напрямую к пользователю, разместившему торрент файл.

Вверх