Loading...
Error

Эйдан 5 / Aidan 5 [01-16 из 16] (Джон Джексон, Бен Бэйс) [2010 г., фантастика, драма, нуар, WEBRip 720p] VO

Статистика раздачи
Размер:  2,36 GB   |    Зарегистрирован:  5 лет 2 месяца   |    Скачан:  8 раз

Полного источника не было: 1 год 10 месяцев

Сидов:  0  |  0 KB/s  ]   Личеров:  0  |  0 KB/s  ]

* - сиды/пиры с внешних источников

   
 
Автор Сообщение

Чертёнок Пол:Муж

28-Авг-2013 06:27

Эйдан 5 / Aidan 5
Страна: США
Жанр: Фантастика, Драма, Нуар
Год выпуска: 2010
Продолжительность: 16 ~7-10 мин
Перевод: Одноголосый закадровый
Cубтитры: Русские
Оригинальная аудиодорожка: Английский

Режиссер: Джон Джексон, Бен Бэйс / John Jackson, Ben Bays
В ролях: Bryan Michael Block, Maya Sayre, John Michael Stubbins, Jon Osbeck, Sarah Murphy, Megan Moore, Amber Mikesell, Bryan Coleman, Nick Baldasare, John Newkirk, Bryan Arnold

Описание:
Год 2064. Клонирование изменило жизнь всего человечества. Когда детектив Джеймс Эйдан находит свой собственный труп на месте преступления, он обнаруживает паутину интриг и порока охватывающую всё: от верхушки корпораций Америки до криминального подполья. При помощи своей напарницы, детектива Морган Райли, Эйдан ищет улики, ведущие обоих в глубины заговора, который угрожает самой стабильности общества.

Доп. информация:
Перевод: Ворон, с 4 серии JJ
Редакция: JJ, NeZumi (3 серия)
Озвучивание Ворон работа над дорожкой Ворон

Качество видео: WEBRip 720p - Сэмпл
Формат видео: AVC
Видео: 1280 x 720 (16:9), 29.970 fps, 1818 Kbps avg, 0.066 bit/pixel
Аудио: 48 kHz, AC3 Dolby Digital, 2ch, ~192 kbps (Русский)
Аудио 2: 48 kHz, AC3 Dolby Digital, 2ch, ~192 kbps (Английский)
Формат субтитров: srt
ормат : Matroska
Версия формата : Version 2
Размер файла : 108 Мбайт
Продолжительность : 6 м. 41 с.
Общий поток : 2247 Кбит/сек
Дата кодирования : UTC 2012-07-26 17:57:59
Программа кодирования : mkvmerge v5.7.0 ('The Whirlwind') built on Jul 8 2012 20:08:51
Библиотека кодирования : libebml v1.2.3 + libmatroska v1.3.0

Видео
Идентификатор : 1
Формат : AVC
Формат/Информация : Advanced Video Codec
Профиль формата : High@L3.1
Параметр CABAC формата : Да
Параметр ReFrames формата : 1 кадр
Параметр GOP формата : M=1, N=30
Идентификатор кодека : V_MPEG4/ISO/AVC
Продолжительность : 6 м. 41 с.
Битрейт : 1818 Кбит/сек
Ширина : 1280 пикселей
Высота : 720 пикселей
Соотношение сторон : 16:9
Режим частоты кадров : Переменный
Частота кадров : 29,970 кадров/сек
Цветовое пространство : YUV
Субдискретизация насыщенности : 4:2:0
Битовая глубина : 8 бит
Тип развёртки : Прогрессивная
Бит/(Пиксели*Кадры) : 0.066
Размер потока : 87,0 Мбайт (81%)
Default : Да
Forced : Нет

Аудио #1
Идентификатор : 2
Формат : AC-3
Формат/Информация : Audio Coding 3
Расширение режима : CM (complete main)
Параметр Endianness формата : Big
Идентификатор кодека : A_AC3
Продолжительность : 6 м. 41 с.
Вид битрейта : Постоянный
Битрейт : 192 Кбит/сек
Каналы : 2 канала
Расположение каналов : Front: L R
Частота : 48,0 КГц
Битовая глубина : 16 бит
Метод сжатия : С потерями
Размер потока : 9,19 Мбайт (9%)
Заголовок : AVO Ворон
Язык : Russian
Default : Да
Forced : Нет

Аудио #2
Идентификатор : 3
Формат : AC-3
Формат/Информация : Audio Coding 3
Расширение режима : CM (complete main)
Параметр Endianness формата : Big
Идентификатор кодека : A_AC3
Продолжительность : 6 м. 41 с.
Вид битрейта : Постоянный
Битрейт : 192 Кбит/сек
Каналы : 2 канала
Расположение каналов : Front: L R
Частота : 48,0 КГц
Битовая глубина : 16 бит
Метод сжатия : С потерями
Размер потока : 9,19 Мбайт (9%)
Заголовок : Original
Язык : English
Default : Нет
Forced : Нет

Текст
Идентификатор : 4
Формат : UTF-8
Идентификатор кодека : S_TEXT/UTF8
Идентификатор кодека/Информация : UTF-8 Plain Text
Заголовок : Ворон
Язык : Russian
Default : Да
Forced : Нет
Веб-сериал созданный в духе "Города Грехов", "Aidan 5". Все декорации выполнены в простеньких графических зарисовках и возможно в трёхмерной графике, натуральны лишь актёры, снимающиеся на "зелёном экране". Стиль сериала выполнен в жанре нуар и антиутопия, которые подчёркиваются депрессивной, чёрно-белой картинкой.
picpicpicpic
Для увеличения картинки щелкните мышкой по превью

Этот торрент недоступен для скачивания без регистрации, однако доступен по публичной magnet-ссылке (источники с публичных трекеров). Перед использованием ссылки прочтите, пожалуйста Пользовательское соглашение, а также как можно дольше оставайтесь на раздаче! Для того, чтобы скачать сам торрент-файл (который видит больше источников), а также для того, чтобы поблагодарить релизера, вам необходимо зарегистрироваться. Если регистрироваться лень - вы можете также попробовать скачать релиз по нашим партнерским ссылкам ниже. Кроме того, зарегистрированным пользователям не показывается всплывающая реклама при скачивании.

[underverse.su].t30398.torrent
Трекер: Зарегистрирован   [ 28.08.2013 06:27 ]  

Статус: проверено (by Чертёнок at 28.08.2013 06:29)
Поблагодарили: пока никто не поблагодарил...
Тип торрента: публичный - доступные источники с открытых трекеров: 
Размер: 2,36 GB (занимает 0,54 DVDR, для записи нужно 1 болванка DVDR/RW)
 
 

Яндекс.Метрика powered by Sphinx


В Н И М А Н И Е
Сайт не распространяет и не хранит электронные версии произведений, а лишь бесплатно и без коммерческой выгоды (не требуя взамен платы,
SMS и т.д.) предоставляет доступ к создаваемому пользователями каталогу ссылок на торрент-файлы, которые содержат только списки хеш-сумм.
Убедительная просьба с жалобами обращаться напрямую к пользователю, разместившему торрент файл.

Вверх