Loading...
Error

Декстер / Dexter / Сезон: 8 / Серии: 1-12 из 12 (Маркос Сига, Тим Хантер, Кит Гордон) [2013 г., триллер, драма, HDTVRip 720р] MVO (LostFilm) + Original + Subs (Rus, Eng)

Статистика раздачи
Размер:  28,46 GB   |    Зарегистрирован:  5 лет   |    Скачан:  4 раза

Полного источника не было: 1 год 2 месяца

Сидов:  0  |  0 KB/s  ]   Личеров:  0  |  0 KB/s  ]

* - сиды/пиры с внешних источников

   
 
Автор Сообщение

Jimmy Пол:Муж

26-Окт-2013 03:10


Декстер / Dexter


Сезон: 8 / Серии: 1-12 (12)
Страна: США | USA
Жанр: триллер, драма, криминал, детектив
Год выпуска: 2013
Продолжительность: ~00:53:00
Перевод:
Профессиональный (многоголосый закадровый) / LostFilm /
Cубтитры: русские, английские
Режиссер: Маркос Сига, Тим Хантер, Кит Гордон
В ролях:
Майкл С. Холл, Дженнифер Карпентер, Лорен Велес, Джеймс Римар, К.С. Ли, Дэвид Зайас, Джули Бенц, Кристина Робинсон, Престон Бэйли, Десмонд Харрингтон

Описание:
Я - Декстер. Декстер Морган. Я работаю судмедэкспертом в полиции Майами. Я не понимаю любви, мне безразличен секс, и у меня нет чувств. А еще я серийный убийца. Мой отец был полицейским, и прекрасно обучил меня прятать улики. Обычным гражданам не стоит меня бояться, я убиваю только преступников, подонков, до которых почему-либо не смогла или не захотела добраться полиция. Я убиваю их, аккуратно распиливаю на части, и избавляюсь от трупов. Убийство для меня - творческий акт, искусство. Но однажды... В Майами появляется некто, равный мне. Даже превзошедший меня. Сумевший меня заинтересовать. Предложивший мне своего рода товарищеское состязание. Кто этот загадочный и неуловимый «икс»..?.

Качество видео: HDTVRip 720p
Формат: MKV
Видео кодек: H.264
Аудио кодек: AC3
Видео: 1276x720 at 23.976 fps, MPEG-4 AVC, ~4900 kbps avg, ~0.220 bit/pixel
Аудио Rus: 48 kHz, AC3, 3/2 (L,C,R,l,r) + LFE ch, ~384.00 kbps avg / LostFilm /
Аудио Eng: 48 kHz, AC3, 3/2 (L,C,R,l,r) + LFE ch, ~384.00 kbps avg / Оригинал /
«Семпл»


01. - 30.06.2013 - A Beautiful Day / Прекрасный день
02. - 07.07.2013 - Every Silver Lining / Нет худа без добра
03. - 14.07.2013 - What's Eating Dexter Morgan? / Что гложет Декстера Моргана?
04. - 21.07.2013 - Scar Tissue / Рубцовая ткань
05. - 28.07.2013 - This Little Piggy / Первый негритёнок
06. - 04.08.2013 - A Little Reflection / Немного размышлений
07. - 11.08.2013 - Dress Code / Форма одежды
08. - 18.08.2013 - Are We There Yet? / Мы уже приехали?
09. - 25.08.2013 - Make Your Own Kind of Music / Создай свою музыку сам
10. - 08.09.2013 - Goodbye Miami / Прощай, Майами!
11. - 15.09.2013 - Monkey in a Box / Обезьянка в коробке
12. - 22.09.2013 - Remember the Monsters? / Ты помнишь чудовищ?


Код:

Видео
Идентификатор                            : 1
Формат                                   : AVC
Формат/Информация                        : Advanced Video Codec
Профиль формата                          : High@L4.1
Параметр CABAC формата                   : Да
Параметр ReFrames формата                : 9 кадров
Идентификатор кодека                     : V_MPEG4/ISO/AVC
Продолжительность                        : 53 м.
Битрейт                                  : 4927 Кбит/сек
Ширина                                   : 1276 пикселей
Высота                                   : 720 пикселей
Соотношение сторон                       : 16:9
Частота кадров                           : 23,976 кадра/сек
Цветовое пространство                    : YUV
Субдискретизация насыщенности            : 4:2:0
Битовая глубина                          : 8 бит
Тип развёртки                            : Прогрессивная
Бит/(Пиксели*Кадры)                      : 0.224
Размер потока                            : 1,84 Гбайт (85%)
Заголовок                                : Season 8, Episode 01: A Beautiful Day / Прекрасный день @ Release for HDClub by vlaluk
Библиотека кодирования                   : x264 core 133 r2334 a3ac64b
Настройки программы                      : cabac=1 / ref=9 / deblock=1:-2:-2 / analyse=0x3:0x133 / me=umh / subme=11 / psy=1 / psy_rd=1.00:0.00 / mixed_ref=1 / me_range=48 / chroma_me=1 / trellis=2 / 8x8dct=1 / cqm=0 / deadzone=21,11 / fast_pskip=0 / chroma_qp_offset=0 / threads=8 / lookahead_threads=1 / sliced_threads=0 / nr=0 / decimate=0 / interlaced=0 / bluray_compat=0 / constrained_intra=0 / bframes=9 / b_pyramid=2 / b_adapt=2 / b_bias=0 / direct=3 / weightb=1 / open_gop=0 / weightp=2 / keyint=240 / keyint_min=22 / scenecut=40 / intra_refresh=0 / rc_lookahead=130 / rc=crf / mbtree=1 / crf=15.5 / qcomp=0.75 / qpmin=10 / qpmax=51 / qpstep=4 / ip_ratio=1.40 / aq=1:0.65
Язык                                     : English
Default                                  : Да
Forced                                   : Нет

Аудио #1
Идентификатор                            : 2
Формат                                   : AC-3
Формат/Информация                        : Audio Coding 3
Расширение режима                        : CM (complete main)
Идентификатор кодека                     : A_AC3
Продолжительность                        : 53 м.
Вид битрейта                             : Постоянный
Битрейт                                  : 384 Кбит/сек
Каналы                                   : 6 каналов
Расположение каналов                     : Front: L C R, Side: L R, LFE
Частота                                  : 48,0 КГц
Битовая глубина                          : 16 бит
Метод сжатия                             : С потерями
Задержка видео                           : 16 мс.
Размер потока                            : 147 Мбайт (7%)
Заголовок                                : DD 5.1 @ 384 kbps @ LostFilm
Язык                                     : Russian
Default                                  : Да
Forced                                   : Нет

Аудио #2
Идентификатор                            : 3
Формат                                   : AC-3
Формат/Информация                        : Audio Coding 3
Расширение режима                        : CM (complete main)
Идентификатор кодека                     : A_AC3
Продолжительность                        : 53 м.
Вид битрейта                             : Постоянный
Битрейт                                  : 384 Кбит/сек
Каналы                                   : 6 каналов
Расположение каналов                     : Front: L C R, Side: L R, LFE
Частота                                  : 48,0 КГц
Битовая глубина                          : 16 бит
Метод сжатия                             : С потерями
Задержка видео                           : 16 мс.
Размер потока                            : 147 Мбайт (7%)
Заголовок                                : DD 5.1 @ 384 kbps
Язык                                     : English
Default                                  : Нет
Forced                                   : Нет

Текст #1
Идентификатор                            : 4
Формат                                   : UTF-8
Идентификатор кодека                     : S_TEXT/UTF8
Идентификатор кодека/Информация          : UTF-8 Plain Text
Заголовок                                : Russian @ SRT @ N-Team
Язык                                     : Russian
Default                                  : Нет
Forced                                   : Нет

Текст #2
Идентификатор                            : 5
Формат                                   : UTF-8
Идентификатор кодека                     : S_TEXT/UTF8
Идентификатор кодека/Информация          : UTF-8 Plain Text
Заголовок                                : English @ SRT
Язык                                     : English
Default                                  : Нет
Forced                                   : Нет
pic pic pic

Этот торрент недоступен для скачивания без регистрации, однако доступен по публичной magnet-ссылке (источники с публичных трекеров). Перед использованием ссылки прочтите, пожалуйста Пользовательское соглашение, а также как можно дольше оставайтесь на раздаче! Для того, чтобы скачать сам торрент-файл (который видит больше источников), а также для того, чтобы поблагодарить релизера, вам необходимо зарегистрироваться. Если регистрироваться лень - вы можете также попробовать скачать релиз по нашим партнерским ссылкам ниже. Кроме того, зарегистрированным пользователям не показывается всплывающая реклама при скачивании.

[underverse.su].t32315.torrent
Трекер: Зарегистрирован   [ 26.10.2013 03:11 ]  

Статус: проверено (by 90ytr90 at 26.10.2013 07:33)
Поблагодарили: пока никто не поблагодарил...
Тип торрента: публичный - доступные источники с открытых трекеров: 
Размер: 28,46 GB (занимает 6,5 DVDR, для записи нужно 7 болванок DVDR/RW)
 
 
Похожие темы
Форум Тема Автор Торрент Отв. Посл. сооб.
Зарубежные сериалы Декстер / Правосудие Декстера / Dexter / Сезон 8 / Серии 1-12 из 12 (Джон Дал, Роберт Либерман, Ник Гомез) [2013 г., Триллер, драма, криминал, детектив, HDTVRip] MVO + Original Чертёнок
2 | 0

1 | 3274

10

26.09.2013 19:09

Зарубежные сериалы [BD / Remux / BDRip / WEB-DL / HDTV 1080/720р] Декстер / Правосудие Декстера / Dexter / Сезон: 1 / Серии: 1-12 (12) (Майкл Куэста, Тони Голдуин, Кейт Гордон) [2006 г., драма, криминал, триллер, BDRip 720p] 2xMVO (NovaFiLM+FoxCrime) + Original Jimmy
15 | 2

0 | 2440

10

07.03.2013 11:24

Зарубежные сериалы [BD / Remux / BDRip / WEB-DL / HDTV 1080/720р] Декстер / Правосудие Декстера / Dexter / Сезон: 2 / Серии: 1-12 (12) (Маркос Сига, Тим Хантер, Кейт Гордон) [2007 г., драма, криминал, триллер, BDRip 720p] 2xMVO (NovaFiLM+FoxCrime) + Original Jimmy
22 | 4

0 | 2792

9

08.03.2013 18:19

Зарубежные сериалы [BD / Remux / BDRip / WEB-DL / HDTV 1080/720р] Декстер / Правосудие Декстера / Dexter / Сезон: 3 / Серии: 1-12 (12) (Маркос Сига, Тим Хантер, Кейт Гордон) [2008 г., драма, криминал, триллер, BDRip 720p] 2xMVO (NovaFiLM+FoxCrime) + Original Jimmy
10 | 1

0 | 2648

9

12.03.2013 14:08

Зарубежные сериалы [BD / Remux / BDRip / WEB-DL / HDTV 1080/720р] Декстер / Правосудие Декстера / Dexter / Сезон: 4 / Серии: 1-12 (12) (Маркос Сига, Тим Хантер, Кейт Гордон) [2009 г., драма, криминал, триллер, BDRip 720p] 2xMVO (NovaFiLM+FoxCrime) + Original Jimmy
11 | 2

0 | 2593

8

14.03.2013 16:31



Последний раз редактировалось: Jimmy (26.10.2013 14:25), всего редактировалось 1 раз

90ytr90 

26-Окт-2013 07:34

В шапке не указано наличие оригинала

Яндекс.Метрика powered by Sphinx


В Н И М А Н И Е
Сайт не распространяет и не хранит электронные версии произведений, а лишь бесплатно и без коммерческой выгоды (не требуя взамен платы,
SMS и т.д.) предоставляет доступ к создаваемому пользователями каталогу ссылок на торрент-файлы, которые содержат только списки хеш-сумм.
Убедительная просьба с жалобами обращаться напрямую к пользователю, разместившему торрент файл.

Вверх