Loading...
Error

(Alternative Rock) Пилот - 15 лет рока. Это срок! (2012) (2CD) [FLAC (Tracks+.CUE), Lossless]

Статистика раздачи
Размер:  1,05 GB   |    Зарегистрирован:  4 года 9 месяцев   |    Скачан:  9 раз

Полного источника не было: 5 месяцев 21 день

Сидов:  0  |  0 KB/s  ]   Личеров:  0  |  0 KB/s  ]

* - сиды/пиры с внешних источников

   
 
Автор Сообщение

Бишеп Пол:Муж

05-Дек-2013 17:01

Пилот - 15 лет рока. Это срок!

Жанр: Alternative Rock
Год выпуска: 2012
Производитель диска: КапКан
Аудиокодек: FLAC
Тип рипа: Tracks+.CUE
Битрейт аудио: Lossless
Продолжительность: 02:14:49
Треклист:
Треклист:
01. Кеды со звездами
02. Где ты
03. Джедаи
04. Шнурок
05. Королевство шлюх
06. Сфинксы
07. Небо
08. Транзит
09. Сегодняшним днем
10. Цыганщина
11. 7 часов утра
12. Блюз
13. Рок
14. Тюрьма
15. Сибирь
16. Ждите солнца

Exact Audio Copy V1.0 beta 3 from 29. August 2011

Отчёт EAC об извлечении, выполненном 5. февраля 2012, 13:44

Пилот / 15 лет рока - ЭТО СРОК! CD1

Дисковод: PIONEER DVD-RW DVR-219L Adapter: 0 ID: 2

Режим чтения : Достоверность
Использование точного потока : Да
Отключение кэша аудио : Да
Использование указателей C2 : Нет

Коррекция смещения при чтении : 6
Способность читать области Lead-in и Lead-out : Нет
Заполнение пропущенных сэмплов тишиной : Да
Удаление блоков с тишиной в начале и конце : Нет
При вычислениях CRC использовались нулевые сэмплы : Да
Интерфейс : Встроенный Win32-интерфейс для Win NT/2000
Обработка зазоров : Добавлено к предыдущему треку

Выходной формат : Пользовательский кодировщик
Выбранный битрейт : 1024 kBit/s
Качество : Высокий
Добавление ID3-тега : Нет
Утилита сжатия : C:\Program Files (x86)\Exact Audio Copy\FLAC\FLAC.EXE
Дополнительные параметры : -V -8 -T "Genre=%genre%" -T "Artist=%artist%" -T "Title=%title%" -T "Album=%albumtitle%" -T "Date=%year%" -T "Tracknumber=%tracknr%" -T "Comment=%comment%" %source%

TOC извлечённого CD

Трек | Старт | Длительность | Начальный сектор | Конечный сектор
---------------------------------------------------------------------
1 | 0:00.00 | 5:18.01 | 0 | 23850
2 | 5:18.01 | 3:52.05 | 23851 | 41255
3 | 9:10.06 | 4:32.20 | 41256 | 61675
4 | 13:42.26 | 4:00.22 | 61676 | 79697
5 | 17:42.48 | 5:24.07 | 79698 | 104004
6 | 23:06.55 | 6:13.19 | 104005 | 131998
7 | 29:19.74 | 6:47.17 | 131999 | 162540
8 | 36:07.16 | 3:04.49 | 162541 | 176389
9 | 39:11.65 | 6:09.02 | 176390 | 204066
10 | 45:20.67 | 9:11.52 | 204067 | 245443
11 | 54:32.44 | 4:12.47 | 245444 | 264390
12 | 58:45.16 | 3:27.31 | 264391 | 279946
13 | 62:12.47 | 4:15.21 | 279947 | 299092
14 | 66:27.68 | 2:02.34 | 299093 | 308276
15 | 68:30.27 | 2:46.12 | 308277 | 320738
16 | 71:16.39 | 3:21.66 | 320739 | 335879

Трек 1

Имя файла E:\_MP3_HOBUHKU_\EAC\Пилот - 15 лет рока - ЭТО СРОК! CD1\01. Кеды со звездами.wav

Длина предзазора 0:00:02.00

Пиковый уровень 98.8 %
Скорость извлечения 1.1 X
Качество трека 100.0 %
CRC теста C26EC0DA
CRC копии C26EC0DA
Копирование... OK

Трек 2

Имя файла E:\_MP3_HOBUHKU_\EAC\Пилот - 15 лет рока - ЭТО СРОК! CD1\02. Где ты.wav

Пиковый уровень 98.8 %
Скорость извлечения 1.1 X
Качество трека 99.9 %
CRC теста 867E5CA9
CRC копии 867E5CA9
Копирование... OK

Трек 3

Имя файла E:\_MP3_HOBUHKU_\EAC\Пилот - 15 лет рока - ЭТО СРОК! CD1\03. Джедаи.wav

Пиковый уровень 98.8 %
Скорость извлечения 1.4 X
Качество трека 100.0 %
CRC теста 0E070BDB
CRC копии 0E070BDB
Копирование... OK

Трек 4

Имя файла E:\_MP3_HOBUHKU_\EAC\Пилот - 15 лет рока - ЭТО СРОК! CD1\04. Шнурок.wav

Пиковый уровень 98.8 %
Скорость извлечения 1.4 X
Качество трека 100.0 %
CRC теста 5D9BFFF7
CRC копии 5D9BFFF7
Копирование... OK

Трек 5

Имя файла E:\_MP3_HOBUHKU_\EAC\Пилот - 15 лет рока - ЭТО СРОК! CD1\05. Королевство шлюх.wav

Пиковый уровень 98.8 %
Скорость извлечения 1.6 X
Качество трека 100.0 %
CRC теста 798AA5A9
CRC копии 798AA5A9
Копирование... OK

Трек 6

Имя файла E:\_MP3_HOBUHKU_\EAC\Пилот - 15 лет рока - ЭТО СРОК! CD1\06. Сфинксы.wav

Пиковый уровень 98.8 %
Скорость извлечения 1.7 X
Качество трека 100.0 %
CRC теста 4696CDF1
CRC копии 4696CDF1
Копирование... OK

Трек 7

Имя файла E:\_MP3_HOBUHKU_\EAC\Пилот - 15 лет рока - ЭТО СРОК! CD1\07. Небо.wav

Пиковый уровень 98.8 %
Скорость извлечения 1.9 X
Качество трека 100.0 %
CRC теста 334875EA
CRC копии 334875EA
Копирование... OK

Трек 8

Имя файла E:\_MP3_HOBUHKU_\EAC\Пилот - 15 лет рока - ЭТО СРОК! CD1\08. Транзит.wav

Пиковый уровень 98.8 %
Скорость извлечения 1.8 X
Качество трека 100.0 %
CRC теста CD8D9FC3
CRC копии CD8D9FC3
Копирование... OK

Трек 9

Имя файла E:\_MP3_HOBUHKU_\EAC\Пилот - 15 лет рока - ЭТО СРОК! CD1\09. Сегодняшним днем.wav

Пиковый уровень 98.8 %
Скорость извлечения 2.0 X
Качество трека 100.0 %
CRC теста 315AFCBA
CRC копии 315AFCBA
Копирование... OK

Трек 10

Имя файла E:\_MP3_HOBUHKU_\EAC\Пилот - 15 лет рока - ЭТО СРОК! CD1\10. Цыганщина.wav

Пиковый уровень 98.8 %
Скорость извлечения 2.2 X
Качество трека 100.0 %
CRC теста 8F18ACDE
CRC копии 8F18ACDE
Копирование... OK

Трек 11

Имя файла E:\_MP3_HOBUHKU_\EAC\Пилот - 15 лет рока - ЭТО СРОК! CD1\11. 7 часов утра.wav

Пиковый уровень 98.8 %
Скорость извлечения 1.9 X
Качество трека 99.9 %
CRC теста 234AAC9E
CRC копии 234AAC9E
Копирование... OK

Трек 12

Имя файла E:\_MP3_HOBUHKU_\EAC\Пилот - 15 лет рока - ЭТО СРОК! CD1\12. Блюз.wav

Пиковый уровень 98.8 %
Скорость извлечения 2.1 X
Качество трека 100.0 %
CRC теста 4BB93096
CRC копии 4BB93096
Копирование... OK

Трек 13

Имя файла E:\_MP3_HOBUHKU_\EAC\Пилот - 15 лет рока - ЭТО СРОК! CD1\13. Рок.wav

Пиковый уровень 98.8 %
Скорость извлечения 2.0 X
Качество трека 99.9 %
CRC теста FD821CEC
CRC копии FD821CEC
Копирование... OK

Трек 14

Имя файла E:\_MP3_HOBUHKU_\EAC\Пилот - 15 лет рока - ЭТО СРОК! CD1\14. Тюрьма.wav

Пиковый уровень 98.8 %
Скорость извлечения 2.0 X
Качество трека 100.0 %
CRC теста 7385DB5F
CRC копии 7385DB5F
Копирование... OK

Трек 15

Имя файла E:\_MP3_HOBUHKU_\EAC\Пилот - 15 лет рока - ЭТО СРОК! CD1\15. Сибирь.wav

Пиковый уровень 98.8 %
Скорость извлечения 2.2 X
Качество трека 100.0 %
CRC теста 478CA94D
CRC копии 478CA94D
Копирование... OK

Трек 16

Имя файла E:\_MP3_HOBUHKU_\EAC\Пилот - 15 лет рока - ЭТО СРОК! CD1\16. Ждите солнца.wav

Пиковый уровень 98.8 %
Скорость извлечения 2.0 X
Качество трека 99.9 %
CRC теста EC68BB2A
CRC копии EC68BB2A
Копирование... OK

Ошибок не произошло

Конец отчёта

==== Контрольная сумма отчёта D602B1A79C68909657E236A175B064330995167411A531093C526625310BDFDD ====
REM GENRE Rock
REM DATE 2012
REM DISCID E7117E10
REM COMMENT "ExactAudioCopy v1.0b3"
PERFORMER "Пилот"
TITLE "15 лет рока - ЭТО СРОК! CD1"
FILE "Пилот - 15 лет рока - ЭТО СРОК! CD1\01. Кеды со звездами.wav" WAVE
TRACK 01 AUDIO
TITLE "Кеды со звездами"
PERFORMER "Пилот"
INDEX 01 00:00:00
FILE "Пилот - 15 лет рока - ЭТО СРОК! CD1\02. Где ты.wav" WAVE
TRACK 02 AUDIO
TITLE "Где ты?"
PERFORMER "Пилот"
INDEX 01 00:00:00
FILE "Пилот - 15 лет рока - ЭТО СРОК! CD1\03. Джедаи.wav" WAVE
TRACK 03 AUDIO
TITLE "Джедаи"
PERFORMER "Пилот"
INDEX 01 00:00:00
FILE "Пилот - 15 лет рока - ЭТО СРОК! CD1\04. Шнурок.wav" WAVE
TRACK 04 AUDIO
TITLE "Шнурок"
PERFORMER "Пилот"
INDEX 01 00:00:00
FILE "Пилот - 15 лет рока - ЭТО СРОК! CD1\05. Королевство шлюх.wav" WAVE
TRACK 05 AUDIO
TITLE "Королевство шлюх"
PERFORMER "Пилот"
INDEX 01 00:00:00
FILE "Пилот - 15 лет рока - ЭТО СРОК! CD1\06. Сфинксы.wav" WAVE
TRACK 06 AUDIO
TITLE "Сфинксы"
PERFORMER "Пилот"
INDEX 01 00:00:00
FILE "Пилот - 15 лет рока - ЭТО СРОК! CD1\07. Небо.wav" WAVE
TRACK 07 AUDIO
TITLE "Небо"
PERFORMER "Пилот"
INDEX 01 00:00:00
FILE "Пилот - 15 лет рока - ЭТО СРОК! CD1\08. Транзит.wav" WAVE
TRACK 08 AUDIO
TITLE "Транзит"
PERFORMER "Пилот"
INDEX 01 00:00:00
FILE "Пилот - 15 лет рока - ЭТО СРОК! CD1\09. Сегодняшним днем.wav" WAVE
TRACK 09 AUDIO
TITLE "Сегодняшним днем"
PERFORMER "Пилот"
INDEX 01 00:00:00
FILE "Пилот - 15 лет рока - ЭТО СРОК! CD1\10. Цыганщина.wav" WAVE
TRACK 10 AUDIO
TITLE "Цыганщина"
PERFORMER "Пилот"
INDEX 01 00:00:00
FILE "Пилот - 15 лет рока - ЭТО СРОК! CD1\11. 7 часов утра.wav" WAVE
TRACK 11 AUDIO
TITLE "7 часов утра"
PERFORMER "Пилот"
INDEX 01 00:00:00
FILE "Пилот - 15 лет рока - ЭТО СРОК! CD1\12. Блюз.wav" WAVE
TRACK 12 AUDIO
TITLE "Блюз"
PERFORMER "Пилот"
INDEX 01 00:00:00
FILE "Пилот - 15 лет рока - ЭТО СРОК! CD1\13. Рок.wav" WAVE
TRACK 13 AUDIO
TITLE "Рок"
PERFORMER "Пилот"
INDEX 01 00:00:00
FILE "Пилот - 15 лет рока - ЭТО СРОК! CD1\14. Тюрьма.wav" WAVE
TRACK 14 AUDIO
TITLE "Тюрьма"
PERFORMER "Пилот"
INDEX 01 00:00:00
FILE "Пилот - 15 лет рока - ЭТО СРОК! CD1\15. Сибирь.wav" WAVE
TRACK 15 AUDIO
TITLE "Сибирь"
PERFORMER "Пилот"
INDEX 01 00:00:00
FILE "Пилот - 15 лет рока - ЭТО СРОК! CD1\16. Ждите солнца.wav" WAVE
TRACK 16 AUDIO
TITLE "Ждите солнца"
PERFORMER "Пилот"
INDEX 01 00:00:00
Треклист:
01. Осеннее пора
02. 156-ой
03. Звери
04. Рок-н-ролл
05. Ершалаим
06. Нет вестей с небес
07. Двор
08. Любовь, истина и свет
09. Терроризм
10. Смешная сестренка лета
11. ЧБ
12. Неродина
13. Трамвайная
14. Осень
15. Мама
16. Братишка

Exact Audio Copy V1.0 beta 3 from 29. August 2011

Отчёт EAC об извлечении, выполненном 6. февраля 2012, 13:39

Пилот / 15 лет рока - ЭТО СРОК! CD2

Дисковод: PIONEER DVD-RW DVR-219L Adapter: 0 ID: 2

Режим чтения : Достоверность
Использование точного потока : Да
Отключение кэша аудио : Да
Использование указателей C2 : Нет

Коррекция смещения при чтении : 6
Способность читать области Lead-in и Lead-out : Нет
Заполнение пропущенных сэмплов тишиной : Да
Удаление блоков с тишиной в начале и конце : Нет
При вычислениях CRC использовались нулевые сэмплы : Да
Интерфейс : Встроенный Win32-интерфейс для Win NT/2000
Обработка зазоров : Добавлено к предыдущему треку

Выходной формат : Пользовательский кодировщик
Выбранный битрейт : 1024 kBit/s
Качество : Высокий
Добавление ID3-тега : Нет
Утилита сжатия : C:\Program Files (x86)\Exact Audio Copy\FLAC\FLAC.EXE
Дополнительные параметры : -V -8 -T "Genre=%genre%" -T "Artist=%artist%" -T "Title=%title%" -T "Album=%albumtitle%" -T "Date=%year%" -T "Tracknumber=%tracknr%" -T "Comment=%comment%" %source%

TOC извлечённого CD

Трек | Старт | Длительность | Начальный сектор | Конечный сектор
---------------------------------------------------------------------
1 | 0:00.00 | 1:57.22 | 0 | 8796
2 | 1:57.22 | 3:42.05 | 8797 | 25451
3 | 5:39.27 | 4:41.51 | 25452 | 46577
4 | 10:21.03 | 3:44.25 | 46578 | 63402
5 | 14:05.28 | 3:38.32 | 63403 | 79784
6 | 17:43.60 | 4:37.08 | 79785 | 100567
7 | 22:20.68 | 3:06.62 | 100568 | 114579
8 | 25:27.55 | 3:27.00 | 114580 | 130104
9 | 28:54.55 | 4:09.48 | 130105 | 148827
10 | 33:04.28 | 3:53.12 | 148828 | 166314
11 | 36:57.40 | 4:28.02 | 166315 | 186416
12 | 41:25.42 | 3:31.00 | 186417 | 202241
13 | 44:56.42 | 4:59.37 | 202242 | 224703
14 | 49:56.04 | 3:05.61 | 224704 | 238639
15 | 53:01.65 | 4:47.64 | 238640 | 260228
16 | 57:49.54 | 2:21.43 | 260229 | 270846

Трек 1

Имя файла E:\_MP3_HOBUHKU_\EAC\Пилот - 15 лет рока - ЭТО СРОК! CD2\01. Осеннее пора.wav

Длина предзазора 0:00:02.00

Пиковый уровень 98.8 %
Скорость извлечения 0.8 X
Качество трека 100.0 %
CRC теста AD6D8CA1
CRC копии AD6D8CA1
Копирование... OK

Трек 2

Имя файла E:\_MP3_HOBUHKU_\EAC\Пилот - 15 лет рока - ЭТО СРОК! CD2\02. 156-ой.wav

Пиковый уровень 98.8 %
Скорость извлечения 0.9 X
Качество трека 99.9 %
CRC теста 82E7A485
CRC копии 82E7A485
Копирование... OK

Трек 3

Имя файла E:\_MP3_HOBUHKU_\EAC\Пилот - 15 лет рока - ЭТО СРОК! CD2\03. Звери.wav

Пиковый уровень 98.8 %
Скорость извлечения 1.2 X
Качество трека 100.0 %
CRC теста C153E698
CRC копии C153E698
Копирование... OK

Трек 4

Имя файла E:\_MP3_HOBUHKU_\EAC\Пилот - 15 лет рока - ЭТО СРОК! CD2\04. Рок-н-ролл.wav

Пиковый уровень 98.8 %
Скорость извлечения 1.3 X
Качество трека 100.0 %
CRC теста 71540216
CRC копии 71540216
Копирование... OK

Трек 5

Имя файла E:\_MP3_HOBUHKU_\EAC\Пилот - 15 лет рока - ЭТО СРОК! CD2\05. Ершалаим.wav

Пиковый уровень 98.8 %
Скорость извлечения 1.2 X
Качество трека 99.9 %
CRC теста 1BDB0B0F
CRC копии 1BDB0B0F
Копирование... OK

Трек 6

Имя файла E:\_MP3_HOBUHKU_\EAC\Пилот - 15 лет рока - ЭТО СРОК! CD2\06. Нет вестей с небес.wav

Пиковый уровень 98.8 %
Скорость извлечения 1.5 X
Качество трека 100.0 %
CRC теста 2B09E757
CRC копии 2B09E757
Копирование... OK

Трек 7

Имя файла E:\_MP3_HOBUHKU_\EAC\Пилот - 15 лет рока - ЭТО СРОК! CD2\07. Двор.wav

Пиковый уровень 98.8 %
Скорость извлечения 1.4 X
Качество трека 100.0 %
CRC теста 5E8E5553
CRC копии 5E8E5553
Копирование... OK

Трек 8

Имя файла E:\_MP3_HOBUHKU_\EAC\Пилот - 15 лет рока - ЭТО СРОК! CD2\08. Любовь, истина и свет.wav

Пиковый уровень 98.8 %
Скорость извлечения 1.5 X
Качество трека 100.0 %
CRC теста 46C18E10
CRC копии 46C18E10
Копирование... OK

Трек 9

Имя файла E:\_MP3_HOBUHKU_\EAC\Пилот - 15 лет рока - ЭТО СРОК! CD2\09. Терроризм.wav

Пиковый уровень 98.8 %
Скорость извлечения 1.4 X
Качество трека 99.9 %
CRC теста 2D284D58
CRC копии 2D284D58
Копирование... OK

Трек 10

Имя файла E:\_MP3_HOBUHKU_\EAC\Пилот - 15 лет рока - ЭТО СРОК! CD2\10. Смешная сестренка лета.wav

Пиковый уровень 98.8 %
Скорость извлечения 1.7 X
Качество трека 100.0 %
CRC теста B4F68787
CRC копии B4F68787
Копирование... OK

Трек 11

Имя файла E:\_MP3_HOBUHKU_\EAC\Пилот - 15 лет рока - ЭТО СРОК! CD2\11. ЧБ.wav

Пиковый уровень 98.8 %
Скорость извлечения 1.8 X
Качество трека 100.0 %
CRC теста D6594C1F
CRC копии D6594C1F
Копирование... OK

Трек 12

Имя файла E:\_MP3_HOBUHKU_\EAC\Пилот - 15 лет рока - ЭТО СРОК! CD2\12. Неродина.wav

Пиковый уровень 98.8 %
Скорость извлечения 1.8 X
Качество трека 100.0 %
CRC теста 311D68B0
CRC копии 311D68B0
Копирование... OK

Трек 13

Имя файла E:\_MP3_HOBUHKU_\EAC\Пилот - 15 лет рока - ЭТО СРОК! CD2\13. Трамвайная.wav

Пиковый уровень 98.8 %
Скорость извлечения 1.9 X
Качество трека 100.0 %
CRC теста 14A2713F
CRC копии 14A2713F
Копирование... OK

Трек 14

Имя файла E:\_MP3_HOBUHKU_\EAC\Пилот - 15 лет рока - ЭТО СРОК! CD2\14. Осень.wav

Пиковый уровень 98.8 %
Скорость извлечения 1.9 X
Качество трека 100.0 %
CRC теста ED6C85A2
CRC копии ED6C85A2
Копирование... OK

Трек 15

Имя файла E:\_MP3_HOBUHKU_\EAC\Пилот - 15 лет рока - ЭТО СРОК! CD2\15. Мама.wav

Пиковый уровень 98.8 %
Скорость извлечения 1.8 X
Качество трека 99.9 %
CRC теста 57190972
CRC копии 57190972
Копирование... OK

Трек 16

Имя файла E:\_MP3_HOBUHKU_\EAC\Пилот - 15 лет рока - ЭТО СРОК! CD2\16. Братишка.wav

Пиковый уровень 98.8 %
Скорость извлечения 1.9 X
Качество трека 100.0 %
CRC теста D87929C9
CRC копии D87929C9
Копирование... OK

Ошибок не произошло

Конец отчёта

==== Контрольная сумма отчёта 273629970DF9E2BBC65DA7EAE2667D13F78D7511676F040ADFE455EA33962D53 ====
REM GENRE Rock
REM DATE 2012
REM DISCID F90E1B10
REM COMMENT "ExactAudioCopy v1.0b3"
PERFORMER "Пилот"
TITLE "15 лет рока - ЭТО СРОК! CD2"
FILE "Пилот - 15 лет рока - ЭТО СРОК! CD2\01. Осеннее пора.wav" WAVE
TRACK 01 AUDIO
TITLE "Осеннее пора"
PERFORMER "Пилот"
INDEX 01 00:00:00
FILE "Пилот - 15 лет рока - ЭТО СРОК! CD2\02. 156-ой.wav" WAVE
TRACK 02 AUDIO
TITLE "156-ой"
PERFORMER "Пилот"
INDEX 01 00:00:00
FILE "Пилот - 15 лет рока - ЭТО СРОК! CD2\03. Звери.wav" WAVE
TRACK 03 AUDIO
TITLE "Звери"
PERFORMER "Пилот"
INDEX 01 00:00:00
FILE "Пилот - 15 лет рока - ЭТО СРОК! CD2\04. Рок-н-ролл.wav" WAVE
TRACK 04 AUDIO
TITLE "Рок-н-ролл"
PERFORMER "Пилот"
INDEX 01 00:00:00
FILE "Пилот - 15 лет рока - ЭТО СРОК! CD2\05. Ершалаим.wav" WAVE
TRACK 05 AUDIO
TITLE "Ершалаим"
PERFORMER "Пилот"
INDEX 01 00:00:00
FILE "Пилот - 15 лет рока - ЭТО СРОК! CD2\06. Нет вестей с небес.wav" WAVE
TRACK 06 AUDIO
TITLE "Нет вестей с небес"
PERFORMER "Пилот"
INDEX 01 00:00:00
FILE "Пилот - 15 лет рока - ЭТО СРОК! CD2\07. Двор.wav" WAVE
TRACK 07 AUDIO
TITLE "Двор"
PERFORMER "Пилот"
INDEX 01 00:00:00
FILE "Пилот - 15 лет рока - ЭТО СРОК! CD2\08. Любовь, истина и свет.wav" WAVE
TRACK 08 AUDIO
TITLE "Любовь, истина и свет"
PERFORMER "Пилот"
INDEX 01 00:00:00
FILE "Пилот - 15 лет рока - ЭТО СРОК! CD2\09. Терроризм.wav" WAVE
TRACK 09 AUDIO
TITLE "Терроризм"
PERFORMER "Пилот"
INDEX 01 00:00:00
FILE "Пилот - 15 лет рока - ЭТО СРОК! CD2\10. Смешная сестренка лета.wav" WAVE
TRACK 10 AUDIO
TITLE "Смешная сестренка лета"
PERFORMER "Пилот"
INDEX 01 00:00:00
FILE "Пилот - 15 лет рока - ЭТО СРОК! CD2\11. ЧБ.wav" WAVE
TRACK 11 AUDIO
TITLE "ЧБ"
PERFORMER "Пилот"
INDEX 01 00:00:00
FILE "Пилот - 15 лет рока - ЭТО СРОК! CD2\12. Неродина.wav" WAVE
TRACK 12 AUDIO
TITLE "Неродина"
PERFORMER "Пилот"
INDEX 01 00:00:00
FILE "Пилот - 15 лет рока - ЭТО СРОК! CD2\13. Трамвайная.wav" WAVE
TRACK 13 AUDIO
TITLE "Трамвайная"
PERFORMER "Пилот"
INDEX 01 00:00:00
FILE "Пилот - 15 лет рока - ЭТО СРОК! CD2\14. Осень.wav" WAVE
TRACK 14 AUDIO
TITLE "Осень"
PERFORMER "Пилот"
INDEX 01 00:00:00
FILE "Пилот - 15 лет рока - ЭТО СРОК! CD2\15. Мама.wav" WAVE
TRACK 15 AUDIO
TITLE "Мама"
PERFORMER "Пилот"
INDEX 01 00:00:00
FILE "Пилот - 15 лет рока - ЭТО СРОК! CD2\16. Братишка.wav" WAVE
TRACK 16 AUDIO
TITLE "Братишка"
PERFORMER "Пилот"
INDEX 01 00:00:00

Этот торрент недоступен для скачивания без регистрации, однако доступен по публичной magnet-ссылке (источники с публичных трекеров). Перед использованием ссылки прочтите, пожалуйста Пользовательское соглашение, а также как можно дольше оставайтесь на раздаче! Для того, чтобы скачать сам торрент-файл (который видит больше источников), а также для того, чтобы поблагодарить релизера, вам необходимо зарегистрироваться. Если регистрироваться лень - вы можете также попробовать скачать релиз по нашим партнерским ссылкам ниже. Кроме того, зарегистрированным пользователям не показывается всплывающая реклама при скачивании.

[underverse.su].t33847.torrent
Трекер: Зарегистрирован   [ 05.12.2013 17:01 ]  

Статус: проверено (by Бишеп at 05.12.2013 17:01)
Поблагодарили: 2 человека
Тип торрента: публичный - доступные источники с открытых трекеров: 
Размер: 1,05 GB (занимает 0,24 DVDR, для записи нужно 1 болванка DVDR/RW)
 
 
Похожие темы
Форум Тема Автор Торрент Отв. Посл. сооб.
Зарубежная Pop Музыка (Alternative Pop, Neo Soul, Indie) Amanda Jenssen - Sanger fran on (2015) [MP3, 320 kbps] 90ytr90
1 | 0

0 | 1212

3

23.03.2015 19:02

Зарубежная Pop Музыка (Alternative, Indie) Anna of the North - Lovers (2017) [MP3, 320 kbps CBR] Darkferse
3 | 0

0 | 867

4

13.09.2017 08:47

Зарубежная Pop Музыка (Alternative, Pop, Soul) Plan B - Heaven Before All Hell Breaks Loose (2018) [MP3, 320 kbps CBR] 90ytr90
35 | 0

0 | 353

3

03.06.2018 05:52

Зарубежный Hard, Progressive, Soft, Melodic, AOR, Folk, Classic Rock (Alternative Rock / Progressive Rock) Muse - The 2nd Law (2012) [MP3, 320 kbps] Jimmy
0 | 0

0 | 1429

13

27.09.2012 04:30

Зарубежный Black, Death, Heavy, Thrash, Power, Folk, Gothic Metal (Alternative Metal) This Tragic Day - This Tragic Day (2012) [MP3, 320 kbps] NiiggazCPT
1 | 0

0 | 1597

4

28.10.2012 07:21

Зарубежный Punk, Hardcore, Grunge, Alternative (Alternative) Green Day - Greatest Hits: God's Favorite Band (2017) [iTunes AAC M4A, 256 kbps VBR] Web garry
1 | 0

5 | 3954

1

04.02.2010 17:52

Зарубежный Punk, Hardcore, Grunge, Alternative (Alternative) Red Hot Chili Peppers - Greatest Hits (2003) [iTunes AAC M4A, 256 kbps VBR] Web garry
2 | 0

0 | 2253

3

02.06.2009 18:51

Зарубежный Punk, Hardcore, Grunge, Alternative (Alternative) The Killers - Discography (2004-2013) [iTunes AAC M4A, 256 kbps VBR] Web garry
13 | 3

0 | 6659

4

20.06.2009 12:07

Зарубежный Punk, Hardcore, Grunge, Alternative (Alternative, Pop-Punk, Female Vocal) We Are the In Crowd - Weird Kids [Deluxe Edition] (2014) [MP3, 320 kbps] Jimmy
1 | 0

0 | 1248

3

23.04.2014 15:58

Зарубежный Punk, Hardcore, Grunge, Alternative (Alternative, Pop Punk, Emo) Fireworks - (Oh), Common Life (2014) [MP3, 320 kbps] Jimmy
0 | 1

0 | 1043

4

23.04.2014 15:55


Яндекс.Метрика powered by Sphinx


В Н И М А Н И Е
Сайт не распространяет и не хранит электронные версии произведений, а лишь бесплатно и без коммерческой выгоды (не требуя взамен платы,
SMS и т.д.) предоставляет доступ к создаваемому пользователями каталогу ссылок на торрент-файлы, которые содержат только списки хеш-сумм.
Убедительная просьба с жалобами обращаться напрямую к пользователю, разместившему торрент файл.

Вверх