Loading...
Error

Смертельная битва: Наследие / Mortal Kombat: Legacy / Сезон: 2 / Серии: 1-10 (10) (Кевин Танчароэн) [2013, США, Фэнтези, боевик, триллер, криминал, WEBRip 720p] MVO (Alternative Production)

Статистика раздачи
Размер:  1,46 GB   |    Зарегистрирован:  4 года 10 месяцев   |    Скачан:  17 раз

Полного источника не было: 9 месяцев

Сидов:  0  |  0 KB/s  ]   Личеров:  0  |  0 KB/s  ]

* - сиды/пиры с внешних источников

   
 
Автор Сообщение

Jimmy Пол:Муж

21-Дек-2013 07:45

Смертельная битва: Наследие / Mortal Kombat: Legacy

Год выпуска: 2013
Страна: США
Жанр: Фэнтези, боевик, триллер, криминал
Продолжительность:[/url]01:16:00
Перевод:
Любительский (многоголосый закадровый) Alternative Production
Русские субтитры: нет
Режиссёр: Кевин Танчароэн.
В ролях: Джонсон Фэн, Йен Энтони Дэйл, Ким Ду Нгуйен, Даррен Шахлави, Эндрю Чин, Саманта Джо, Алекс Паунович, Майкл Джей Уайт, Кеван Охтци, Джери Райан и др.
Описание: Второй сезон сериала «Смертельная битва: Наследие» в одном фильме, в котором рассказывается о том, как каждый из героев попал на турнир «Смертельная битва».
Качество: WEBRip 720p
Формат: MKV
Видео кодек: H.264
Аудио кодек: AC3
Видео: H.264, 1280x720, 23.976 fps, 2495 kbps, 0.113 Bit/Pixel
Аудио: AC3, 48 kHz, stereo, 256 kbps
Субтитры: отсутствуют
General
Unique ID : 210340530770702596662363831319079031242 (0x9E3E1CD82296BD8066CF3A172AF611CA)
Format : Matroska
Format version : Version 2
File size : 1.46 GiB
Duration : 1h 16mn
Overall bit rate : 2 745 Kbps
Encoded date : UTC 2013-10-12 22:04:46
Writing application : Lavf55.14.101
Writing library : Lavf55.14.101
TCOD : 0
TCDO : 45674795833

Video
ID : 1
Format : AVC
Format/Info : Advanced Video Codec
Format profile : Main@L4.1
Format settings, CABAC : Yes
Format settings, ReFrames : 2 frames
Codec ID : V_MPEG4/ISO/AVC
Duration : 1h 16mn
Bit rate : 2 495 Kbps
Width : 1 280 pixels
Height : 720 pixels
Display aspect ratio : 16:9
Frame rate mode : Constant
Frame rate : 23.976 fps
Color space : YUV
Chroma subsampling : 4:2:0
Bit depth : 8 bits
Scan type : Progressive
Bits/(Pixel*Frame) : 0.113
Stream size : 1.29 GiB (89%)
Writing library : x264 core 138 r2345
Encoding settings : cabac=1 / ref=2 / deblock=1:0:0 / analyse=0x1:0x131 / me=hex / subme=7 / psy=1 / psy_rd=1.00:0.00 / mixed_ref=0 / me_range=16 / chroma_me=1 / trellis=1 / 8x8dct=0 / cqm=0 / deadzone=21,11 / fast_pskip=1 / chroma_qp_offset=-2 / threads=6 / lookahead_threads=1 / sliced_threads=0 / nr=0 / decimate=1 / interlaced=0 / bluray_compat=0 / constrained_intra=0 / bframes=3 / b_pyramid=0 / b_adapt=1 / b_bias=0 / direct=3 / weightb=1 / open_gop=0 / weightp=2 / keyint=230 / keyint_min=23 / scenecut=40 / intra_refresh=0 / rc_lookahead=40 / rc=abr / mbtree=1 / bitrate=2495 / ratetol=1.0 / qcomp=0.60 / qpmin=10 / qpmax=69 / qpstep=4 / vbv_maxrate=24000 / vbv_bufsize=24000 / nal_hrd=none / ip_ratio=1.40 / aq=1:1.00
Default : Yes
Forced : No

Audio
ID : 2
Format : AC-3
Format/Info : Audio Coding 3
Mode extension : CM (complete main)
Format settings, Endianness : Big
Codec ID : A_AC3
Duration : 1h 16mn
Bit rate mode : Constant
Bit rate : 256 Kbps
Channel count : 2 channels
Channel positions : Front: L R
Sampling rate : 48.0 KHz
Bit depth : 16 bits
Compression mode : Lossy
Stream size : 139 MiB (9%)
Default : Yes
Forced : No
pic pic pic pic
Сезон 1

Этот торрент недоступен для скачивания без регистрации, однако доступен по публичной magnet-ссылке (источники с публичных трекеров). Перед использованием ссылки прочтите, пожалуйста Пользовательское соглашение, а также как можно дольше оставайтесь на раздаче! Для того, чтобы скачать сам торрент-файл (который видит больше источников), а также для того, чтобы поблагодарить релизера, вам необходимо зарегистрироваться. Если регистрироваться лень - вы можете также попробовать скачать релиз по нашим партнерским ссылкам ниже. Кроме того, зарегистрированным пользователям не показывается всплывающая реклама при скачивании.

[underverse.su].t34411.torrent
Трекер: Зарегистрирован   [ 21.12.2013 07:45 ]  

Статус: проверено (by Jimmy at 21.12.2013 07:47)
Поблагодарили: пока никто не поблагодарил...
Тип торрента: публичный - доступные источники с открытых трекеров: 
Размер: 1,46 GB (занимает 0,33 DVDR, для записи нужно 1 болванка DVDR/RW)
 
 
Похожие темы
Форум Тема Автор Торрент Отв. Посл. сооб.
Зарубежное кино [DVDRip, Low-Res HDRip, и т.д.] Смертельная гонка 2: Франкенштейн жив / Death Race 2 (Роэль Рейн ) [2010 г., фантастика, боевик, триллер , HDRip] Dub R5 _Dante_
10 | 0

5 | 1222

35

10.10.2012 09:39

Зарубежное кино [DVDRip, Low-Res HDRip, и т.д.] Смертельная гонка 3 / Death Race: Inferno [Unrated] (Роэль Рейн) [2013 г., боевик, триллер, криминал, HDRip] DVO (Antasia, adrenal_in) 90ytr90
1 | 0

0 | 1152

14

14.01.2013 15:09

Зарубежное кино [DVDRip, Low-Res HDRip, и т.д.] Смертельная гонка 3 / Death Race: Inferno [Unrated] (Роэль Рейн) [2013 г., боевик, триллер, криминал, HDRip] Dub 90ytr90
14 | 0

2 | 1853

51

28.03.2013 19:17

Зарубежное кино [DVDRip, Low-Res HDRip, и т.д.] Смертельная семёрка / Dead 7 (Денни Роу) [2016 г., ужасы, вестерн, WEBRip] VO makkol
6 | 0

0 | 869

7

02.05.2016 23:00

T Зарубежное кино [DVDRip, Low-Res HDRip, и т.д.] Смертельная Гонка 2050 / Death Race 2050 (Гилберт Джон / Gilbert John) [2016 г., фантастика, боевик, комедия, HDRip] MVO 90ytr90
11 | 0

0 | 1010

19

08.01.2017 19:17

T Зарубежное кино [DVDRip, Low-Res HDRip, и т.д.] Смертельная Гонка 2050 / Death Race 2050 (Гилберт Джон) [2017 г., фантастика, боевик, комедия, HDRip] Dub (Line) makkol
1 | 0

0 | 970

7

05.05.2017 21:28

T Зарубежное кино [DVDRip, Low-Res HDRip, и т.д.] Смертельная гонка 4: Вне анархии / Death Race 4: Beyond Anarchy (Дон Майкл Пол) [2018 г., боевик, WEB-DLRip] MVO (@MUZOBOZ@) makkol
26 | 1

0 | 950

29

31.01.2018 22:08

T Зарубежное кино [DVDRip, Low-Res HDRip, и т.д.] Смертельная игра / Headgame (Стивен Джудд / Steven Judd) [2018 г., ужасы, HDRip] MVO (Синема УС) 90ytr90
2 | 0

0 | 454

6

10.02.2018 13:54

T Зарубежное кино [DVDRip, Low-Res HDRip, и т.д.] Смертельная жажда / Резня на рейв-вечеринке / DeadThirsty / Rave Party Massacre (Джейсон Уинн) [2017 г., ужасы, WEB-DLRip] MVO (Синема УС) makkol
1 | 0

0 | 369

4

06.05.2018 13:26

Зарубежные сериалы Смертельная битва: Наследие [Miniseries] [S01] (сериал) / Mortal Kombat: Legacy (Кевин Танчароэн) [2011 (1 сезон) г., фэнтези, боевик, триллер, криминал, BDRip] H. Ledger
2 | 0

0 | 1980

24

11.06.2012 01:05


Яндекс.Метрика powered by Sphinx


В Н И М А Н И Е
Сайт не распространяет и не хранит электронные версии произведений, а лишь бесплатно и без коммерческой выгоды (не требуя взамен платы,
SMS и т.д.) предоставляет доступ к создаваемому пользователями каталогу ссылок на торрент-файлы, которые содержат только списки хеш-сумм.
Убедительная просьба с жалобами обращаться напрямую к пользователю, разместившему торрент файл.

Вверх