Loading...
Error

(Авторская песня) Леонид Сергеев / Сяду - поеду (2012) [FLAC (Image+.CUE), Lossless]

Статистика раздачи
Размер:  268 MB   |    Зарегистрирован:  4 года 7 месяцев   |    Скачан:  10 раз

Полного источника не было: 3 месяца 23 дня

Сидов:  0  |  0 KB/s  ]   Личеров:  0  |  0 KB/s  ]

* - сиды/пиры с внешних источников

   
 
Автор Сообщение

Бишеп Пол:Муж

22-Дек-2013 13:54

Леонид Сергеев / Сяду - поеду

Жанр: Авторская песня
Год выпуска: 2012
Производитель диска: МузПром - 244
Аудиокодек: FLAC
Тип рипа: Image+.CUE
Битрейт аудио: Lossless
Продолжительность: 00:52:10
Треклист:
01. История
02. Дорожная
03. Снова история...
04. Ох, не чужд был поэт...
05. Опять история...
06. Интенса на "Ч"
07. Ещё история...
08. Сколько ж вам исполнилось...
09. ... Вы не поверите, но ... история...
10. Открытое письмо Пэрис Хилтон
11. Обратно, история...
12. Песня про Тарара
13. Просто история...
14. Симфонический оркестр
15. Было и такое...
16. Тамада
17. Другая история
18. Предновогодняя
19. Тоже история...
20. Последний парад
21. О следующей песне...
22. Не стало туманов... (Ю. Кукину)

Exact Audio Copy V0.99 prebeta 5 from 4. May 2009

Отчёт EAC об извлечении, выполненном 31. октября 2012, 14:15

Леонид Сергеев / Сяду - Поеду

Дисковод: PIONEER DVD-RW DVR-218L Adapter: 0 ID: 0

Режим чтения : Достоверность
Использование точного потока : Да
Отключение кэша аудио : Да
Использование указателей C2 : Нет

Коррекция смещения при чтении : 6
Способность читать области Lead-in и Lead-out : Нет
Заполнение пропущенных сэмплов тишиной : Да
Удаление блоков с тишиной в начале и конце : Нет
При вычислениях CRC использовались нулевые сэмплы : Да
Интерфейс : Встроенный Win32-интерфейс для Win NT/2000

Выходной формат : Пользовательский кодировщик
Выбранный битрейт : 128 kBit/s
Качество : Высокий
Добавление ID3-тэга : Нет
Утилита сжатия : C:\Program Files (x86)\Exact Audio Copy\Flac\flac.exe
Дополнительные параметры : -5 -V -T "ARTIST=%a" -T "TITLE=%t" -T "ALBUM=%g" -T "DATE=%y" -T "TRACKNUMBER=%n" -T "GENRE=%m" -T "COMMENT=EAC FLAC -5" %s

TOC извлечённого CD

Трек | Старт | Длительность | Начальный сектор | Конечный сектор
---------------------------------------------------------------------
1 | 0:00.00 | 0:46.39 | 0 | 3488
2 | 0:46.39 | 3:45.29 | 3489 | 20392
3 | 4:31.68 | 1:15.70 | 20393 | 26087
4 | 5:47.63 | 2:27.59 | 26088 | 37171
5 | 8:15.47 | 1:12.42 | 37172 | 42613
6 | 9:28.14 | 4:11.57 | 42614 | 61495
7 | 13:39.71 | 0:47.48 | 61496 | 65068
8 | 14:27.44 | 2:38.53 | 65069 | 76971
9 | 17:06.22 | 1:33.18 | 76972 | 83964
10 | 18:39.40 | 3:19.11 | 83965 | 98900
11 | 21:58.51 | 2:53.67 | 98901 | 111942
12 | 24:52.43 | 2:28.34 | 111943 | 123076
13 | 27:21.02 | 1:07.14 | 123077 | 128115
14 | 28:28.16 | 3:42.38 | 128116 | 144803
15 | 32:10.54 | 1:21.65 | 144804 | 150943
16 | 33:32.44 | 4:08.16 | 150944 | 169559
17 | 37:40.60 | 1:16.35 | 169560 | 175294
18 | 38:57.20 | 3:31.47 | 175295 | 191166
19 | 42:28.67 | 0:57.29 | 191167 | 195470
20 | 43:26.21 | 4:13.20 | 195471 | 214465
21 | 47:39.41 | 1:36.47 | 214466 | 221712
22 | 49:16.13 | 2:53.33 | 221713 | 234720

Характеристики диапазона извлечения и сообщения об ошибках

Выбранный диапазон

Имя файла F:\_МУЗЫКА\Леонид Сергеев - Сяду - Поеду (2012)\2012 - Леонид Сергеев - Сяду - Поеду.wav

Пиковый уровень 97.7 %
Качество диапазона 100.0 %
CRC теста 2CFC521B
CRC копии 2CFC521B
Копирование... OK

Ошибок не произошло

AccurateRip: сводка
Трек 1 нет в базе данных
Трек 2 нет в базе данных
Трек 3 нет в базе данных
Трек 4 нет в базе данных
Трек 5 нет в базе данных
Трек 6 нет в базе данных
Трек 7 нет в базе данных
Трек 8 нет в базе данных
Трек 9 нет в базе данных
Трек 10 нет в базе данных
Трек 11 нет в базе данных
Трек 12 нет в базе данных
Трек 13 нет в базе данных
Трек 14 нет в базе данных
Трек 15 нет в базе данных
Трек 16 нет в базе данных
Трек 17 нет в базе данных
Трек 18 нет в базе данных
Трек 19 нет в базе данных
Трек 20 нет в базе данных
Трек 21 нет в базе данных
Трек 22 нет в базе данных
Ни одного трека нет в базе AccurateRip

Конец отчёта

Этот торрент недоступен для скачивания без регистрации, однако доступен по публичной magnet-ссылке (источники с публичных трекеров). Перед использованием ссылки прочтите, пожалуйста Пользовательское соглашение, а также как можно дольше оставайтесь на раздаче! Для того, чтобы скачать сам торрент-файл (который видит больше источников), а также для того, чтобы поблагодарить релизера, вам необходимо зарегистрироваться. Если регистрироваться лень - вы можете также попробовать скачать релиз по нашим партнерским ссылкам ниже. Кроме того, зарегистрированным пользователям не показывается всплывающая реклама при скачивании.

[underverse.su].t34464.torrent
Трекер: Зарегистрирован   [ 22.12.2013 13:54 ]  

Статус: проверено (by Бишеп at 22.12.2013 13:54)
Поблагодарили: 1 человек
Тип торрента: публичный - доступные источники с открытых трекеров: 
Размер: 268 MB (занимает 0,06 DVDR, для записи нужно 1 болванка DVDR/RW)
 
 
Похожие темы
Форум Тема Автор Торрент Отв. Посл. сооб.
Авторские песни, Барды (Авторская песня) Владимир Высоцкий - Полная коллекция (2009) [MP3, 320 kbps] Добрый жмот
9 | 2

11 | 5925

83

31.07.2013 07:22

Авторские песни, Барды (Авторская песня) Тимур Шаов - О чем молчал Герасим... (2010) [MP3, 320 kbps] KonKoSerg
9 | 0

4 | 2633

26

24.08.2013 06:03

Авторские песни, Барды (Авторская песня) Татьяна и Сергей Никитины - Городок, что я выдумал (2011) [MP3, 320 kbps] KonKoSerg
2 | 0

1 | 2931

41

11.05.2013 10:18

Авторские песни, Барды (Авторская песня) Владимир Высоцкий - Дискография [22 СD] (2001-2007) [MP3, 320 CBR] vovanig
1 | 1

2 | 3583

60

07.08.2014 19:18

Авторские песни, Барды (Авторская песня) Семён Слепаков - Альбом 1 (2012) [MP3, 320 kbps CBR] Бишеп
1 | 0

1 | 2084

54

11.05.2013 07:53

Авторские песни, Барды (Авторская песня, Фолк) Никола Емелин (Емеля) - Дискография (6 альбомов) (1989 - 2011) [MP3, 64-320 kbps] gregsib
27 | 3

1 | 2100

25

05.07.2013 18:48

Авторские песни, Барды (Авторская песня) Вячеслав Мясников (Уральские пельмени) - Сборник песен (2014) [MP3, 128-320 kbps CBR] terra07
1 | 0

1 | 2737

43

09.12.2015 14:37

Авторские песни, Барды (Авторская песня) Владимир Высоцкий - Спасибо, что живой. Песни из кинофильма... - и не только (2012) [MP3, 320 kbps CBR] valera87
1 | 0

0 | 1280

8

14.03.2015 16:31

Авторские песни, Барды (Lossless) (Авторская песня) Владимир Высоцкий - Grand Collection. Часть 1 / Часть 2 (2004) [FLAC (Tracks+.CUE), lossless] garry
0 | 0

1 | 1874

15

21.04.2012 07:06

# Авторские песни, Барды (Lossless) (Авторская песня) Евгений Баранник - На Прорезной (2010) [FLAC (Tracks+.CUE), lossless] garry
0 | 0

0 | 2446

2

20.02.2012 18:25


Яндекс.Метрика powered by Sphinx


В Н И М А Н И Е
Сайт не распространяет и не хранит электронные версии произведений, а лишь бесплатно и без коммерческой выгоды (не требуя взамен платы,
SMS и т.д.) предоставляет доступ к создаваемому пользователями каталогу ссылок на торрент-файлы, которые содержат только списки хеш-сумм.
Убедительная просьба с жалобами обращаться напрямую к пользователю, разместившему торрент файл.

Вверх